<?xml version="1.0" standalone="no"?>
<!DOCTYPE svg PUBLIC "-//W3C//DTD SVG 1.1//EN" "http://www.w3.org/Graphics/SVG/1.1/DTD/svg11.dtd" >
<svg xmlns="http://www.w3.org/2000/svg">
<metadata>Generated by IcoMoon</metadata>
<defs>
<font id="icomoon" horiz-adv-x="1024">
<font-face units-per-em="1024" ascent="960" descent="-64" />
<missing-glyph horiz-adv-x="1024" />
<glyph unicode="&#x20;" horiz-adv-x="512" d="" />
<glyph unicode="&#xe000;" glyph-name="error" horiz-adv-x="853" d="M468.668 384.667v256h-84v-256h84zM468.668 212.667v86h-84v-86h84zM426.668 852.667q176 0 301-125t125-301-125-301-301-125-301 125-125 301 125 301 301 125z" />
<glyph unicode="&#xe002;" glyph-name="warning" horiz-adv-x="939" d="M511.334 340.667v172h-84v-172h84zM511.334 170.667v86h-84v-86h84zM-0.666 42.667l470 810 470-810h-940z" />
<glyph unicode="&#xe0ff;" glyph-name="download" horiz-adv-x="597" d="M0.67 170.667h596v-86h-596v86zM596.67 554.667l-298-298-298 298h170v256h256v-256h170z" />
<glyph unicode="&#xe100;" glyph-name="upload" horiz-adv-x="597" d="M0.67 170.667h596v-86h-596v86zM170.67 256.667v256h-170l298 298 298-298h-170v-256h-256z" />
<glyph unicode="&#xe206;" glyph-name="check" horiz-adv-x="747" d="M234.669 248.667l452 452 60-60-512-512-238 238 60 60z" />
<glyph unicode="&#xe209;" glyph-name="close" horiz-adv-x="597" d="M596.67 664.667l-238-238 238-238-60-60-238 238-238-238-60 60 238 238-238 238 60 60 238-238 238 238z" />
<glyph unicode="&#xe29b;" glyph-name="help" horiz-adv-x="853" d="M556.668 458.667q40 40 40 96 0 70-50 120t-120 50-120-50-50-120h84q0 34 26 60t60 26 60-26 26-60-26-60l-52-54q-50-54-50-120v-22h84q0 66 50 120zM468.668 128.667v84h-84v-84h84zM426.668 852.667q176 0 301-125t125-301-125-301-301-125-301 125-125 301 125 301 301 125z" />
<glyph unicode="&#xe2a2;" glyph-name="info" horiz-adv-x="853" d="M468.668 554.667v86h-84v-86h84zM468.668 212.667v256h-84v-256h84zM426.668 852.667q176 0 301-125t125-301-125-301-301-125-301 125-125 301 125 301 301 125z" />
<glyph unicode="&#xe60e;" glyph-name="calendar" d="M938.7 864h-138.7v64c0 17.7-14.3 32-32 32s-32-14.3-32-32v-64h-192v64c0 17.7-14.3 32-32 32s-32-14.3-32-32v-64h-192v64c0 17.7-14.3 32-32 32s-32-14.3-32-32v-64h-138.7c-47.1 0-85.3-38.2-85.3-85.3v-757.3c0-47.1 38.2-85.3 85.3-85.3h853.3c47.1 0 85.3 38.2 85.3 85.3v757.3c0.1 47.1-38.1 85.3-85.2 85.3v0zM960 21.3c0-11.8-9.6-21.3-21.3-21.3h-853.4c-11.8 0-21.3 9.6-21.3 21.3v757.4c0 11.7 9.6 21.3 21.3 21.3h138.7v-64c0-17.7 14.3-32 32-32s32 14.3 32 32v64h192v-64c0-17.7 14.3-32 32-32s32 14.3 32 32v64h192v-64c0-17.7 14.3-32 32-32s32 14.3 32 32v64h138.7c11.7 0 21.3-9.6 21.3-21.3v-757.4zM224 576h128v-96h-128v96zM224 416h128v-96h-128v96zM224 256h128v-96h-128v96zM448 256h128v-96h-128v96zM448 416h128v-96h-128v96zM448 576h128v-96h-128v96zM672 256h128v-96h-128v96zM672 416h128v-96h-128v96zM672 576h128v-96h-128v96z" />
<glyph unicode="&#xe900;" glyph-name="UPHOLSTERY_SHOPFITTING_black" horiz-adv-x="936" d="M358.4 954.35c-5.65-0.706-25.777-3.178-44.138-5.297-96.044-10.946-189.263-40.254-242.229-76.623-34.957-23.658-34.957-24.011-45.197-85.451-18.361-112.993-21.186-146.891-21.539-231.283 0-136.298 14.124-193.854 54.025-221.396l8.474-5.65-20.48-184.32c-23.305-211.156-25.070-189.263 16.243-199.503 26.13-6.356 67.443-4.59 73.799 3.178 1.766 2.119 4.943 19.068 7.415 37.429 12.712 103.459 28.954 205.859 35.31 224.221 3.884 11.652 12.006 26.836 17.655 33.898 6.709 8.828 10.946 18.714 12.712 31.073 1.412 9.887 3.178 18.008 4.59 18.008 1.059 0 23.658-2.119 49.788-4.943s68.855-6.356 94.279-7.768l46.963-2.472 0.706-129.236 1.059-129.236h109.462l1.059 129.236 0.706 129.236 51.906 2.472c28.601 1.412 73.446 4.943 99.928 7.768 26.13 2.825 48.728 4.943 49.788 4.943 1.412 0 3.178-7.768 3.884-17.655 1.059-11.652 4.943-21.539 11.299-30.014 21.892-28.248 26.483-49.788 48.375-213.628 6.003-46.257 12.712-84.039 14.83-85.451s14.124-3.531 26.13-4.943c17.302-1.766 28.248-0.706 49.434 5.297 14.83 3.884 28.601 8.828 30.367 10.593s-4.943 74.505-17.302 186.439l-20.127 182.908 19.068 19.421c22.246 22.246 27.895 37.076 37.429 95.338 8.121 51.906 8.121 169.137 0 234.814-8.828 70.268-23.658 161.368-27.542 168.43-5.297 10.24-38.135 32.839-69.208 48.375-58.615 29.308-134.886 49.081-225.986 58.615-43.785 4.59-210.803 6.709-242.935 3.178zM609.103 928.221c77.683-10.593 152.894-30.367 200.563-52.966 28.601-13.418 64.618-37.076 67.090-44.138 3.178-7.415 19.068-113.699 25.777-167.724 10.593-89.335 5.65-211.862-10.946-267.299-6.003-20.48-18.714-37.429-33.192-45.197-30.72-15.537-116.877-33.545-208.684-43.079-81.92-8.474-286.014-8.474-365.462 0-62.146 6.709-140.888 20.127-171.255 29.308-55.437 16.243-68.149 34.251-80.154 111.581-12.359 81.567-7.062 192.088 15.89 329.446l9.534 56.497 27.189 18.008c60.734 40.96 153.6 66.737 290.604 80.508 26.836 2.825 204.8-1.059 233.048-4.943zM111.581 312.408c13.771-4.237 72.033-16.243 77.683-16.243 3.884 0-3.884-31.073-9.534-37.076-10.593-12.006-24.364-45.55-29.661-73.092-2.472-14.124-10.593-69.561-18.008-122.88-7.062-53.319-13.418-97.457-13.771-98.163-2.472-2.825-37.429-1.412-50.494 2.472-13.065 3.531-14.83 5.297-14.83 14.124 0 5.297 8.121 81.214 17.655 168.077 9.887 86.863 17.655 160.309 17.655 162.781 0 6.003 1.766 6.003 23.305 0zM864.044 152.806c10.24-88.982 18.361-166.312 18.714-171.255 0-8.121-2.119-9.534-20.127-14.477-16.949-4.59-46.963-5.297-46.963-1.059 0 0.706-6.356 48.375-14.124 106.637-19.068 138.77-22.599 154.306-44.491 183.261-4.59 6.356-9.181 17.655-10.593 25.423l-2.119 14.124 20.48 3.884c11.652 2.472 32.839 7.062 47.316 10.593 14.477 3.884 28.248 6.356 30.014 6.003 2.119-0.706 11.652-73.446 21.892-163.134zM494.345 156.69v-118.29h-67.090v236.579h67.090v-118.29zM99.222 810.284c-2.119-2.472-3.178-7.415-1.766-10.593 4.59-12.006 124.646-39.901 232.695-54.025 38.488-4.943 73.092-6.356 157.131-6.003 123.233 0 166.312 4.943 263.768 29.661 66.030 16.949 85.804 25.070 85.804 35.31 0 3.884-2.119 8.121-4.59 9.181-2.825 1.059-24.011-3.884-46.963-10.946-104.166-31.779-178.67-42.019-301.55-42.019-121.114 0.353-225.986 13.771-331.564 42.372-50.141 13.771-47.669 13.418-52.966 7.062z" />
<glyph unicode="&#xe901;" glyph-name="arrow-up" d="M1024 192.201l-512 511.598-512-511.598z" />
<glyph unicode="&#xe902;" glyph-name="arrow-right" d="M0 391.111h807.822l-204.8-204.8 79.644-79.644 341.333 341.333-341.333 341.333-79.644-79.644 204.8-204.8h-807.822z" />
<glyph unicode="&#xe903;" glyph-name="filter" d="M35.944 412.264h457.665c16.091-66.247 75.86-115.566 147.122-115.566s130.821 49.319 147.122 115.566h200.202c19.853 0 35.944 16.091 35.944 35.944s-16.091 35.736-35.944 35.736h-200.202c-16.091 66.247-75.86 115.566-147.122 115.566s-130.821-49.319-147.122-115.566h-457.665c-19.853 0-35.944-16.091-35.944-35.736 0.209-20.062 16.3-35.944 35.944-35.944zM640.731 527.621c43.886 0 79.621-35.736 79.621-79.621s-35.736-79.621-79.621-79.621-79.83 35.736-79.83 79.621 35.736 79.621 79.83 79.621zM35.944 64.731h219.638c16.091-66.247 75.86-115.566 147.122-115.566s130.821 49.319 147.122 115.566h438.23c19.853 0 35.944 16.091 35.944 35.736 0 19.853-16.091 35.944-35.944 35.944h-438.23c-16.091 66.247-75.86 115.566-147.122 115.566s-130.821-49.319-147.122-115.566h-219.638c-19.853 0-35.944-16.091-35.944-35.944 0.209-19.644 16.3-35.736 35.944-35.736zM402.704 180.297c43.886 0 79.621-35.736 79.621-79.621s-35.736-79.621-79.621-79.621c-43.259 0-78.576 34.691-79.621 77.949 0 0.627 0 1.254 0 1.881s0 1.254 0 1.881c1.045 42.841 36.362 77.531 79.621 77.531zM35.944 759.589h219.638c16.091-66.247 75.86-115.566 147.122-115.566s130.821 49.319 147.122 115.566h438.23c19.853 0 35.944 16.091 35.944 35.944s-16.091 35.736-35.944 35.736h-438.23c-16.091 66.247-75.86 115.566-147.122 115.566s-130.821-49.319-147.122-115.566h-219.638c-19.853 0-35.944-16.091-35.944-35.736 0.209-19.853 16.3-35.944 35.944-35.944zM402.704 875.154c43.886 0 79.621-35.736 79.621-79.621s-35.736-79.621-79.621-79.621c-43.259 0-78.576 34.691-79.621 77.949 0 0.627 0 1.254 0 1.881s0 1.254 0 1.881c1.045 42.632 36.362 77.531 79.621 77.531z" />
<glyph unicode="&#xe904;" glyph-name="Winter-Icons_black-01" d="M736.392 169.767c0.172 0.172 0.344 0.344 0.344 0.516s0.172 0.172 0.172 0.344 0.172 0.344 0.344 0.688c0 0.172 0 0.172 0.172 0.344 0 0.172 0.172 0.516 0.172 0.688s0 0.344 0 0.344 0 0.344 0 0.344 0 0.172 0 0.344c0 0 0 0.172 0 0.172l-33.027 407.329c0 0.172 0 0.172 0 0.344s0 0.344-0.172 0.688c0 0.172-0.172 0.344-0.172 0.516s-0.172 0.344-0.172 0.516c0 0.172-0.172 0.344-0.172 0.344-0.172 0.172-0.172 0.344-0.344 0.516 0 0.172-0.172 0.172-0.172 0.344-0.172 0.172-0.344 0.344-0.516 0.516 0 0-0.172 0.172-0.172 0.172-0.172 0.172-0.344 0.344-0.688 0.516 0 0-0.172 0.172-0.172 0.172-0.172 0.172-0.516 0.172-0.688 0.344-0.172 0-0.172 0-0.344 0.172-0.172 0-0.344 0.172-0.688 0.172-0.172 0-0.344 0-0.516 0s-0.172 0-0.344 0h-66.225c-3.096 0-5.504-2.408-5.504-5.504s2.408-5.504 5.504-5.504h60.893l32.167-396.321h-428.315l32.167 396.321h60.893c3.096 0 5.504 2.408 5.504 5.504s-2.408 5.504-5.504 5.504h-66.053c-0.172 0-0.172 0-0.344 0s-0.344 0-0.516 0c-0.172 0-0.344 0-0.516-0.172-0.172 0-0.172 0-0.344-0.172s-0.516-0.172-0.688-0.344c0 0-0.172 0-0.172-0.172-0.172-0.172-0.516-0.344-0.688-0.516 0 0 0 0-0.172-0.172s-0.344-0.344-0.688-0.688c0 0-0.172-0.172-0.172-0.172-0.172-0.172-0.344-0.344-0.516-0.688 0-0.172-0.172-0.172-0.172-0.344-0.172-0.172-0.172-0.344-0.172-0.688 0-0.172-0.172-0.344-0.172-0.344 0-0.172-0.172-0.344-0.172-0.688 0-0.172 0-0.172 0-0.344l-33.027-407.329c0 0 0-0.172 0-0.172s0-0.172 0-0.172 0-0.172 0-0.344 0-0.344 0-0.516c0-0.172 0-0.344 0.172-0.516 0-0.172 0.172-0.344 0.172-0.516s0.172-0.344 0.172-0.516c0-0.172 0.172-0.344 0.172-0.344 0.172-0.172 0.172-0.344 0.344-0.516s0.172-0.172 0.344-0.344 0.344-0.344 0.344-0.344 0.172-0.172 0.344-0.344 0.344-0.172 0.516-0.344c0.172-0.172 0.344-0.172 0.516-0.172s0.344-0.172 0.516-0.172c0.172 0 0.344-0.172 0.516-0.172s0.344 0 0.516-0.172c0.172 0 0.172 0 0.344 0s0.344 0 0.516 0c0 0 0 0 0 0h440.184c0 0 0 0 0 0 0.172 0 0.344 0 0.516 0s0.172 0 0.344 0 0.344 0 0.516 0.172c0.172 0 0.344 0.172 0.516 0.172s0.344 0.172 0.516 0.172c0.172 0 0.344 0.172 0.516 0.172 0.172 0.172 0.344 0.172 0.516 0.344s0.172 0.172 0.344 0.344 0.344 0.344 0.516 0.344c0 0.172 0.172 0.172 0.172 0.344zM577.967 574.86c3.096 0 5.504 2.408 5.504 5.504s-2.408 5.504-5.504 5.504h-132.107c-3.096 0-5.504-2.408-5.504-5.504s2.408-5.504 5.504-5.504h132.107zM319.43 206.234c0-3.096 2.408-5.504 5.504-5.504h374.303c3.096 0 5.504 2.408 5.504 5.504s-2.408 5.504-5.504 5.504h-374.303c-3.096 0-5.504-2.58-5.504-5.504zM412.49 519.816c0.172 0 0.344 0 0.516 0 2.752 0 5.16 2.236 5.504 4.988 0.172 1.892 17.029 192.828 93.576 192.828s93.404-190.936 93.576-192.828c0.172-3.096 2.924-5.332 6.020-4.988 3.096 0.172 5.332 2.924 4.988 6.020-0.688 8.257-17.889 202.977-104.585 202.977s-103.897-194.72-104.585-202.977c-0.344-3.096 1.892-5.676 4.988-6.020z" />
<glyph unicode="&#xe905;" glyph-name="Winter-Icons_black-02" d="M883.464 489.885c0 0.172 0 0.344 0 0.344 0 0.172 0 0.344 0 0.688 0 0.172 0 0.344-0.172 0.344 0 0.172-0.172 0.344-0.172 0.516s-0.172 0.344-0.172 0.344-0.172 0.344-0.344 0.516c0 0 0 0.172-0.172 0.172 0 0 0 0-0.172 0.172s-0.344 0.344-0.516 0.516c-0.172 0.172-0.172 0.172-0.344 0.344s-0.344 0.344-0.516 0.344c-0.172 0-0.172 0.172-0.344 0.172-0.172 0.172-0.344 0.172-0.688 0.344-0.172 0-0.172 0.172-0.344 0.172 0 0 0 0 0 0l-255.441 86.007c-0.172 0-0.516 0.172-0.688 0.172l-252.861 51.776c0 0-0.172 0-0.172 0-0.172 0-0.344 0-0.516 0s-0.516 0-0.688 0c-0.172 0-0.344 0-0.516 0s-0.516 0-0.688-0.172c-0.172 0-0.344 0-0.344-0.172-0.172-0.172-0.516-0.172-0.688-0.344 0 0-0.172 0-0.172-0.172 0 0 0 0 0 0-0.344-0.172-0.688-0.344-0.86-0.688 0 0 0 0 0 0-0.344-0.172-0.516-0.516-0.688-0.86 0-0.172-0.172-0.172-0.172-0.344-0.172-0.172-0.344-0.344-0.344-0.688 0-0.172-0.172-0.344-0.172-0.344 0-0.172-0.172-0.344-0.172-0.344s0-0.172 0-0.172c0 0 0-0.172 0-0.172l-12.385-63.473c-0.516-2.752 1.032-5.332 3.612-6.193l11.525-3.956h-115.938c-1.72 0-3.44-0.86-4.472-2.236l-69.666-97.532c0 0 0 0 0 0s0-0.172-0.172-0.172-0.172-0.344-0.344-0.688c0 0 0-0.172-0.172-0.172-0.172-0.344-0.172-0.516-0.344-0.86 0 0 0 0 0 0 0-0.344 0-0.688-0.172-0.86 0 0 0 0 0-0.172v-166.854c0-12.213 9.805-22.018 22.018-22.018h381.871c12.213 0 22.018 9.805 22.018 22.018v166.854c0 0 0 0.172 0 0.172 0 0.344 0 0.516-0.172 0.86 0 0 0 0.172 0 0.172 0 0.344-0.172 0.688-0.344 0.86 0 0.172 0 0.172-0.172 0.172-0.172 0.172-0.172 0.344-0.344 0.688 0 0 0 0.172-0.172 0.172 0 0 0 0 0 0.172l-18.578 25.63 93.576-32.339c0 0 0 0 0.172 0s0.344 0 0.344-0.172c0.172 0 0.344-0.172 0.516-0.172s0.172 0 0.344 0l190.248-16.513c0.172 0 0.344 0 0.516 0 2.58 0 4.816 1.892 5.332 4.472l10.321 52.636c0 0.172 0 0.172 0 0.344 0.172 0.172 0.172 0.344 0.172 0.688zM818.615 504.163l-127.462 18.406-239.96 82.911 169.778-34.747 197.644-66.569zM373.959 620.444l309.625-106.821-10.321-52.636-309.625 106.821 10.321 52.636zM590.696 285.189c0-6.020-4.988-11.009-11.009-11.009h-381.699c-6.020 0-11.009 4.988-11.009 11.009v161.349h403.717v-161.349zM585.364 457.547h-393.224l61.925 86.523h144.836l164.962-56.937 21.502-29.586zM863.339 443.098l-179.239 15.653 10.321 52.292 177.175-25.802-8.257-42.143z" />
<glyph unicode="&#xe906;" glyph-name="Winter-Icons_black-03" d="M824.292 684.261h-27.522v38.531c0 3.096-2.408 5.504-5.504 5.504h-33.027c-3.096 0-5.504-2.408-5.504-5.504s2.408-5.504 5.504-5.504h27.522v-38.531c0-3.096 2.408-5.504 5.504-5.504h27.522v-146.384l-31.307-31.307c-1.032-1.032-1.548-2.408-1.548-3.956v-314.098h-388.064c-9.117 0-16.513 7.397-16.513 16.513s7.397 16.513 16.513 16.513h371.55c3.096 0 5.504 2.408 5.504 5.504v275.567c0 1.376-0.516 2.924-1.548 3.956l-31.479 31.479v195.752c0 3.096-2.408 5.504-5.504 5.504h-338.524c-15.137 0-27.522-12.385-27.522-27.522v-506.754c0 0 0 0 0 0 0-15.137 12.213-27.35 27.35-27.522 0 0 0.172 0 0.172 0h393.396c3.096 0 5.504 2.408 5.504 5.504v317.366l31.479 31.479c1.032 1.032 1.548 2.408 1.548 3.956v154.125c0 2.752-2.408 5.332-5.504 5.332zM397.869 717.288h333.019v-192.656c0-1.548 0.516-2.924 1.548-3.956l31.479-31.479v-267.654h-366.046c-6.193 0-11.869-2.064-16.513-5.504v484.736c-0.172 9.117 7.397 16.513 16.513 16.513zM419.714 199.526c-3.096 0-5.504-2.408-5.504-5.504s2.408-5.504 5.504-5.504h327.515c3.096 0 5.504 2.408 5.504 5.504s-2.408 5.504-5.504 5.504h-327.515zM807.778 546.65v99.080c0 3.096-2.408 5.504-5.504 5.504s-5.504-2.408-5.504-5.504v-99.080c0-3.096 2.408-5.504 5.504-5.504s5.504 2.408 5.504 5.504zM359.337 667.748c0 3.096-2.408 5.504-5.504 5.504h-89.447c-1.72 0-3.268-0.86-4.3-2.064l-44.036-57.109c-0.688-1.032-1.204-2.064-1.204-3.44v-383.591c0-3.096 2.408-5.504 5.504-5.504h133.483c3.096 0 5.504 2.408 5.504 5.504s-2.408 5.504-5.504 5.504h-127.978v376.195l41.283 53.496h86.695c2.924 0 5.504 2.408 5.504 5.504zM269.89 645.73v-27.522h-27.522c-3.096 0-5.504-2.408-5.504-5.504s2.408-5.504 5.504-5.504h33.027c3.096 0 5.504 2.408 5.504 5.504v33.027c0 3.096-2.408 5.504-5.504 5.504s-5.504-2.58-5.504-5.504z" />
<glyph unicode="&#xe907;" glyph-name="arrow-down" d="M0 704l512-512 512 512z" />
<glyph unicode="&#xe908;" glyph-name="Winter-Icons_black-04" d="M352.801 693.378h329.407c3.096 0 5.504 2.408 5.504 5.504s-2.408 5.504-5.504 5.504h-331.127c-0.86 0-1.548-0.172-2.236-0.516-7.225-1.892-12.385-8.257-12.385-15.997 0-9.117 7.397-16.513 16.513-16.513h329.407c3.096 0 5.504 2.408 5.504 5.504s-2.408 5.504-5.504 5.504h-329.579c-3.096 0-5.504 2.408-5.504 5.504s2.408 5.504 5.504 5.504zM704.226 660.351c3.096 0 5.504 2.408 5.504 5.504v44.036c0 9.117-7.397 16.513-16.513 16.513h-342.136c-0.344 0-0.688 0-1.204-0.172-19.954-1.548-35.607-18.061-35.607-38.359v-484.564c0-21.158 17.201-38.531 38.531-38.531h340.416c9.117 0 16.513 7.397 16.513 16.513v462.546c0 9.117-7.397 16.513-16.513 16.513h-340.416c-15.137 0-27.522 12.385-27.522 27.522s12.385 27.522 27.522 27.522h340.416c3.096 0 5.504-2.408 5.504-5.504v-44.036c0-3.096 2.408-5.504 5.504-5.504zM352.801 649.343h340.416c3.096 0 5.504-2.408 5.504-5.504v-462.546c0-3.096-2.408-5.504-5.504-5.504h-340.416c-15.137 0-27.522 12.385-27.522 27.522v457.73c6.881-7.225 16.685-11.697 27.522-11.697z" />
<glyph unicode="&#xe909;" glyph-name="check-symbol" d="M325.818 221.091l-244.364 244.364-81.455-81.455 325.818-325.818 698.182 698.182-81.455 81.455z" />
<glyph unicode="&#xe90a;" glyph-name="close-icon-1" d="M367.235 665.249l-72.483-72.483 144.765-144.765-144.765-144.765 72.483-72.483 144.765 144.765 144.765-144.765 72.483 72.483-144.765 144.765 144.765 144.765-72.483 72.483-144.765-144.765-144.765 144.765zM149.986 810.014c-199.178-199.178-199.178-525.051 0-724.028s525.051-199.178 724.028 0 199.178 525.051 0 724.028-524.85 199.178-724.028 0zM801.531 158.469c-159.222-159.222-420.041-159.222-579.263 0s-159.222 420.041 0 579.263 420.041 159.222 579.263 0 159.423-420.041 0-579.263z" />
<glyph unicode="&#xe90b;" glyph-name="close2" d="M1024 857.6l-102.4 102.4-409.6-409.6-409.6 409.6-102.4-102.4 409.6-409.6-409.6-409.6 102.4-102.4 409.6 409.6 409.6-409.6 102.4 102.4-409.6 409.6z" />
<glyph unicode="&#xe90c;" glyph-name="contact" d="M1000.727 820.364h-977.455c-12.87 0-23.273-10.403-23.273-23.273v-698.182c0-12.87 10.403-23.273 23.273-23.273h977.455c12.847 0 23.273 10.403 23.273 23.273v698.182c0 12.87-10.426 23.273-23.273 23.273zM977.455 178.479l-288.303 288.279-32.908-32.908 311.668-311.668h-911.825l311.668 311.668-32.908 32.908-288.303-288.279v595.34h930.909v-595.34zM930.42 773.818l-418.42-418.42-418.42 418.42h-47.034v-18.781l449.001-449.001c9.1-9.1 23.808-9.1 32.908 0l449.001 449.001v18.781h-47.034z" />
<glyph unicode="&#xe90d;" glyph-name="folder-open" horiz-adv-x="1074" d="M1073.714 406.857c0-13.714-8.571-27.429-17.714-37.714l-192-226.286c-33.143-38.857-100.571-69.714-150.857-69.714h-621.714c-20.571 0-49.714 6.286-49.714 32 0 13.714 8.571 27.429 17.714 37.714l192 226.286c33.143 38.857 100.571 69.714 150.857 69.714h621.714c20.571 0 49.714-6.286 49.714-32zM877.714 603.428v-91.429h-475.429c-71.429 0-160-40.571-206.286-95.429l-195.429-229.714c0 4.571-0.571 9.714-0.571 14.286v548.571c0 70.286 57.714 128 128 128h182.857c70.286 0 128-57.714 128-128v-18.286h310.857c70.286 0 128-57.714 128-128z" />
<glyph unicode="&#xe90e;" glyph-name="download-button" d="M933.647 598.588h-240.941v361.412h-361.412v-361.412h-240.941l421.647-421.647 421.647 421.647zM90.353 56.471v-120.471h843.294v120.471h-843.294z" />
<glyph unicode="&#xe90f;" glyph-name="facebook" d="M729.623 568.099h-137.256v90.3c0 34.314 21.672 41.538 37.926 41.538s97.524 0 97.524 0v149.898h-133.644c-148.092 0-182.406-111.972-182.406-182.406v-99.33h-86.688v-153.51h86.688c0-196.854 0-435.245 0-435.245h180.6c0 0 0 240.198 0 435.245h122.808l14.448 153.51z" />
<glyph unicode="&#xe910;" glyph-name="info-button" d="M512 960c-281.6 0-512-230.4-512-512s230.4-512 512-512 512 230.4 512 512-230.4 512-512 512zM563.2 192h-102.4v307.2h102.4v-307.2zM563.2 601.6h-102.4v102.4h102.4v-102.4z" />
<glyph unicode="&#xe911;" glyph-name="instagram" d="M509.291 658.399c-126.42 0-231.168-102.942-231.168-231.168s102.942-231.168 231.168-231.168 231.168 104.748 231.168 231.168-104.748 231.168-231.168 231.168zM509.291 279.139c-81.27 0-148.092 66.822-148.092 148.092s66.822 148.092 148.092 148.092 148.092-66.822 148.092-148.092-66.822-148.092-148.092-148.092zM801.862 663.817c0-28.925-23.449-52.374-52.374-52.374s-52.374 23.449-52.374 52.374c0 28.925 23.449 52.374 52.374 52.374s52.374-23.449 52.374-52.374zM884.938 799.266c-46.956 48.762-113.778 74.046-189.63 74.046h-372.035c-157.122 0-261.869-104.748-261.869-261.869v-370.229c0-77.658 25.284-144.48 75.852-193.242 48.762-46.956 113.778-70.434 187.824-70.434h368.423c77.658 0 142.674 25.284 189.63 70.434 48.762 46.956 74.046 113.778 74.046 191.436v372.035c0 75.852-25.284 140.868-72.24 187.824zM874.102 239.407c0-55.986-16.254-101.136-48.762-131.838s-77.658-46.956-131.838-46.956h-368.423c-54.18 0-99.33 16.254-131.838 46.956-32.508 32.508-48.762 77.658-48.762 133.644v370.229c0 54.18 16.254 99.33 48.762 131.838 30.702 30.702 77.658 46.956 131.838 46.956h372.035c54.18 0 99.33-16.254 131.838-48.762 30.702-32.508 48.762-77.658 48.762-130.032v-372.035z" />
<glyph unicode="&#xe912;" glyph-name="phone-receiver" d="M1023.511 152.060c2.17-16.624-2.896-31.077-15.177-43.361l-144.177-143.088c-6.504-7.227-14.994-13.375-25.473-18.429-10.479-5.061-20.776-8.313-30.89-9.756-0.723 0-2.896-0.186-6.511-0.547-3.608-0.36-8.306-0.544-14.087-0.544-13.735 0-35.959 2.349-66.674 7.048s-68.293 16.264-112.734 34.689c-44.453 18.429-94.859 46.075-151.227 82.929-56.368 36.852-116.353 87.444-179.95 151.765-50.588 49.866-92.504 97.563-125.748 143.091-33.244 45.531-59.983 87.628-80.219 126.292-20.237 38.664-35.414 73.714-45.531 105.152s-16.983 58.538-20.597 81.303-5.059 40.651-4.336 53.66c0.723 13.008 1.084 20.235 1.084 21.681 1.445 10.118 4.697 20.416 9.756 30.895s11.202 18.971 18.429 25.475l144.177 144.177c10.118 10.118 21.681 15.177 34.689 15.177 9.395 0 17.706-2.71 24.933-8.13s13.37-12.105 18.429-20.055l115.992-220.059c6.504-11.563 8.311-24.21 5.42-37.941s-9.034-25.294-18.429-34.689l-53.118-53.118c-1.445-1.445-2.71-3.794-3.794-7.046s-1.626-5.962-1.626-8.13c2.891-15.177 9.395-32.521 19.513-52.034 8.672-17.345 22.042-38.483 40.109-63.416s43.723-53.658 76.967-86.179c32.521-33.247 61.429-59.080 86.723-77.512 25.289-18.422 46.435-31.977 63.418-40.65s29.992-13.912 39.024-15.713l13.547-2.712c1.445 0 3.799 0.544 7.048 1.626 3.252 1.086 5.601 2.349 7.048 3.796l61.788 62.874c13.016 11.561 28.185 17.343 45.531 17.343 12.289 0 22.040-2.166 29.267-6.504h1.082l209.217-123.58c15.182-9.402 24.214-21.323 27.106-35.777z" />
<glyph unicode="&#xe913;" glyph-name="search2" d="M731.429 316.343h-46.811l-17.552 17.554c58.514 64.366 93.623 152.137 93.623 245.76-0.002 210.651-169.694 380.343-380.345 380.343s-380.343-169.691-380.343-380.343 169.691-380.343 380.343-380.343c93.623 0 181.394 35.109 245.76 93.623l17.554-17.552v-46.811l292.571-292.574 87.771 87.771-292.571 292.571zM380.343 316.343c-146.286 0-263.314 117.029-263.314 263.314s117.029 263.314 263.314 263.314 263.314-117.029 263.314-263.314-117.029-263.314-263.314-263.314z" />
<glyph unicode="&#xe914;" glyph-name="send" d="M944.708 704h-530.104c-40.104 0-75.23-28.48-83.52-67.75l-73.376-348.584c-1.126-5.354-1.708-10.854-1.708-16.376 0-43.728 35.562-79.29 79.292-79.29h530.104c40.104 0 75.23 28.48 83.52 67.75l73.376 348.584c1.126 5.354 1.708 10.854 1.708 16.376 0 43.728-35.562 79.29-79.292 79.29zM414.604 661.334h529.456c-74.106-51.448-237.088-164.516-297.976-206.23-8.25-5.646-25.25-11.166-34.876-2.062-43.808 41.204-159.396 151.826-213.934 204.102 5.396 2.454 11.138 4.19 17.33 4.19zM980.542 617.166l-73.376-348.604c-4.146-19.646-21.708-33.896-41.77-33.896h-530.104c-20.188 0-36.626 16.438-36.626 36.626 0 2.542 0.27 5.062 0.792 7.542l72.33 343.644c56.242-53.872 167.464-160.316 210.148-200.498 11.812-11.126 26.75-17.020 43.188-17.020 15.208 0 30.792 5.166 45.084 14.938 64.18 43.98 241.776 167.224 309.25 214.078 0.816-3.032 1.876-5.982 1.876-9.266 0-2.544-0.272-5.064-0.792-7.544zM192 277.334h-170.666c-11.792 0-21.334-9.542-21.334-21.334s9.542-21.334 21.334-21.334h170.666c11.792 0 21.334 9.542 21.334 21.334s-9.542 21.334-21.334 21.334zM213.334 405.334h-192c-11.792 0-21.334-9.542-21.334-21.334s9.542-21.334 21.334-21.334h192c11.792 0 21.334 9.542 21.334 21.334s-9.542 21.334-21.334 21.334zM234.666 533.334h-213.332c-11.792 0-21.334-9.542-21.334-21.334s9.542-21.334 21.334-21.334h213.334c11.792 0 21.334 9.542 21.334 21.334s-9.544 21.334-21.336 21.334zM21.334 618.666h234.666c11.792 0 21.334 9.542 21.334 21.334s-9.542 21.334-21.334 21.334h-234.666c-11.792 0-21.334-9.542-21.334-21.334s9.542-21.334 21.334-21.334z" />
<glyph unicode="&#xe915;" glyph-name="star-leer" d="M771-3c-9 0-18 2.2-25.8 6.4l-233.2 122.4-233-122.4c-18.6-9.8-41.6-8.2-58.6 4.2-17.2 12.4-25.6 33.2-22 54.2l44.6 259.6-188.6 183.8c-15 14.6-20.6 37-14 57 6.6 20.4 23.8 34.8 44.8 37.8l260.6 37.8 116.4 236.2c9.2 18.8 28.8 31 49.8 31s40.6-12.2 49.8-31l116.4-236 260.8-38c21-3 38.2-17.6 44.8-37.8v0c6.6-20.2 1.2-42-14-57l-188.6-184 44.4-259.2c3.6-21-4.8-41.8-22-54.4-9.6-7-20.8-10.6-32.6-10.6zM746.8 48.4c0 0 0 0 0 0v0zM782.2 74.2v0c0 0 0 0 0 0zM512 216.2l226.4-119-43.2 252.2 183.2 178.6-253.2 36.8-113.2 229.4-113.2-229.4-253.2-36.8 183.2-178.6-43.2-252.2 226.4 119zM110 562.6v0c0.2 0 0 0 0 0zM490 838.6c0 0 0 0 0 0v0zM534 838.8v0c0-0.2 0 0 0 0z" />
<glyph unicode="&#xe916;" glyph-name="star2" d="M1023.102 564.492c-2.163 6.635-7.9 11.474-14.81 12.482l-331.576 48.188-148.284 300.453c-3.079 6.269-9.458 10.228-16.423 10.228s-13.362-3.959-16.423-10.228l-148.302-300.471-331.576-48.188c-6.91-1.008-12.629-5.829-14.81-12.482-2.145-6.617-0.367-13.912 4.637-18.769l239.948-233.881-56.656-330.256c-1.173-6.873 1.65-13.82 7.277-17.926 5.664-4.142 13.16-4.674 19.301-1.393l296.604 155.909 296.567-155.909c2.676-1.411 5.627-2.108 8.541-2.108 3.794 0 7.57 1.173 10.778 3.501 5.645 4.106 8.468 11.053 7.277 17.926l-56.637 330.238 239.948 233.9c4.986 4.894 6.782 12.171 4.619 18.787z" />
<glyph unicode="&#xe917;" glyph-name="trash" d="M975.337 783.342c-3.995 3.991-9.109 5.996-15.325 5.996h-206.010l-46.667 111.327c-6.664 16.448-18.667 30.449-35.991 42.006-17.34 11.554-34.905 17.329-52.677 17.329h-213.34c-17.772 0-35.332-5.775-52.665-17.329-17.336-11.556-29.336-25.555-36.005-42.006l-46.667-111.327h-206.001c-6.228 0-11.332-2.006-15.334-5.996-3.991-4-5.996-9.114-5.996-15.334v-42.671c0-6.221 1.996-11.334 5.996-15.327 4.002-3.998 9.116-5.996 15.334-5.996h63.995v-634.675c0-36.901 10.445-68.338 31.332-94.333 20.892-26.010 46.003-39.003 75.339-39.003h554.679c29.343 0 54.452 13.441 75.341 40.322 20.887 26.9 31.325 58.783 31.325 95.671v632.017h64.007c6.216 0 11.332 1.999 15.325 5.996 3.988 3.991 6.001 9.107 6.001 15.327v42.671c0.005 6.221-2.011 11.334-5.999 15.334zM395.331 867.349c3.108 3.998 6.888 6.449 11.332 7.332h211.334c4.444-0.89 8.231-3.339 11.334-7.332l32.012-78.001h-298.68l32.668 78.001zM810.676 71.99c0-9.775-1.55-18.779-4.668-26.996-3.115-8.215-6.344-14.216-9.67-17.994-3.341-3.787-5.658-5.667-7.001-5.667h-554.679c-1.333 0-3.654 1.88-6.996 5.667-3.337 3.778-6.562 9.779-9.674 17.994-3.108 8.217-4.663 17.231-4.663 26.996v632.022h597.348v-632.022zM319.999 149.326h42.664c6.228 0 11.344 1.996 15.334 5.994 3.991 4.012 5.996 9.109 5.996 15.341v384.013c0 6.218-2.006 11.332-5.996 15.334-4.002 3.991-9.104 5.989-15.334 5.989h-42.664c-6.228 0-11.334-1.996-15.334-5.989-3.995-4.002-5.996-9.116-5.996-15.334v-384.013c0-6.232 1.994-11.332 5.996-15.341 4-3.995 9.107-5.994 15.334-5.994zM490.668 149.326h42.664c6.225 0 11.339 1.996 15.327 5.994 4.012 4.012 5.999 9.109 5.999 15.341v384.013c0 6.218-1.989 11.332-5.999 15.334-3.988 3.991-9.102 5.989-15.327 5.989h-42.664c-6.221 0-11.334-1.996-15.334-5.989-4.002-4.002-5.996-9.116-5.996-15.334v-384.013c0-6.232 1.994-11.332 5.996-15.341 3.998-3.995 9.114-5.994 15.334-5.994zM661.341 149.326h42.657c6.232 0 11.346 1.996 15.341 5.994 3.995 4.012 5.982 9.109 5.982 15.341v384.013c0 6.218-1.989 11.332-5.982 15.334-3.995 3.991-9.109 5.989-15.341 5.989h-42.657c-6.235 0-11.332-1.996-15.344-5.989-3.995-4.002-5.992-9.116-5.992-15.334v-384.013c0-6.232 1.996-11.332 5.992-15.341 4.012-3.995 9.109-5.994 15.344-5.994z" />
<glyph unicode="&#xe918;" glyph-name="fullscreen" d="M598 724.667h212v-212h-84v128h-128v84zM726 212.667v128h84v-212h-212v84h128zM214 512.667v212h212v-84h-128v-128h-84zM298 340.667v-128h128v-84h-212v212h84z" />
<glyph unicode="&#xe919;" glyph-name="Winter-Icons_black-06" d="M181.303 310.647h396.493c1.204 0 2.408 0.172 3.44 0.172 6.020 0.86 11.009 3.612 13.933 8.085 0.516 0.86 1.032 1.892 1.376 2.924 1.892 4.816 1.548 10.665-1.032 16.513l-47.648 68.634c-2.924 6.193-8.085 11.869-14.277 15.997-3.44 2.236-7.225 4.128-11.009 5.332-3.612 1.204-7.397 1.892-11.009 1.892h-264.214c0 0 0 0 0 0v0c-14.277 0-30.274-10.149-36.295-23.222l-47.648-68.634c-3.268-7.053-3.096-14.105 0.344-19.438 3.44-5.16 9.805-8.257 17.545-8.257zM173.562 333.869l47.648 68.634c4.128 9.117 16.169 16.857 26.318 16.857v0 0c0 0 0 0 0 0h264.558c3.612 0 7.397-1.032 11.009-2.58 4.128-1.892 8.085-4.644 11.009-7.913 1.72-1.892 3.268-3.956 4.128-6.193l43.176-59.173 4.472-9.461c0-0.172 0.172-0.344 0.172-0.516 1.376-3.268 1.548-6.365 0.172-8.429-1.032-1.548-2.924-2.58-5.332-3.096-0.86-0.172-1.892-0.172-2.924-0.172h-396.665c-3.956 0-6.881 1.204-8.257 3.268s-1.204 5.16 0.516 8.773zM193.688 332.665h371.722c1.892 0 3.612 1.032 4.644 2.58s1.204 3.612 0.344 5.332l-42.315 57.281c-1.032 2.064-2.924 4.128-5.16 6.020-3.44 2.58-7.741 4.472-11.009 4.472h-264.558c0 0 0 0 0 0v0c-5.676 0-13.933-5.332-16.169-10.321l-42.487-57.453c-0.86-1.72-0.688-3.784 0.344-5.332s2.752-2.58 4.644-2.58zM240.992 393.386c0.688 1.376 4.644 3.956 6.193 3.956h264.386c1.548-0.172 5.504-2.752 6.365-3.956l38.875-49.712h-354.521l38.703 49.712zM857.318 489.713c3.096 0 5.504 2.408 5.504 5.504v181.475c0 3.096-2.408 5.504-5.504 5.504h-426.595c-3.096 0-5.504-2.408-5.504-5.504v-11.697c-11.353 0.172-23.738 0.344-37.155 0.516v0c-2.924 0-5.848 0-8.601 0s-5.676 0-8.601 0v0c-142.944-0.688-170.466-10.837-171.67-11.009 0 0-27.006-4.472-27.006-27.522v-48.852c0-3.096 2.408-5.504 5.504-5.504s5.504 2.408 5.504 5.504v48.852c0 8.945 8.773 15.481 17.201 16.513 0.516 0 45.928 10.493 179.239 11.009 16.513 0 31.823-0.344 45.756-0.516 3.784-0.172 7.397-0.172 11.009-0.344 89.791-2.58 121.958-9.977 122.474-10.149 8.429-1.032 17.201-7.569 17.201-16.513v-48.852c0-3.096 2.408-5.504 5.504-5.504s5.504 2.408 5.504 5.504v48.852c0 23.050-27.006 27.522-27.006 27.522-1.204 0.172-22.362 7.913-123.506 10.321v6.365h415.414v-170.466h-281.931l16.513 43.864c0.172 1.204 0.172 2.408 0.172 3.612 0 6.020-1.892 11.697-5.848 16.341-4.644 5.332-11.353 8.257-18.75 8.257v0h-365.358c-7.397 0-14.105-2.924-18.75-8.257-3.956-4.472-5.848-10.149-5.848-16.341 0-1.204 0-2.408 0.172-3.612l36.811-97.704c1.204-3.096 1.892-5.16 1.892-5.332 1.204-3.956 3.268-7.741 6.193-11.009 0-0.172 0.172-0.172 0.172-0.344 1.032-1.204 2.58-1.892 4.128-1.892 1.204 0 2.58 0.516 3.612 1.376 0 0 0 0 0 0 0.344 0.172 0.516 0.516 0.688 0.86 1.548 2.064 1.548 4.988-0.172 6.881-1.032 1.204-2.064 2.58-2.752 4.128-0.172 0.344-1.204 2.924-2.752 7.225l-33.715 88.931c-2.064 5.332-3.268 8.429-3.268 8.429-0.516 3.784 0.344 7.397 2.408 10.149 0.172 0.344 0.344 0.516 0.688 0.86s0.688 0.688 1.032 1.032c2.408 2.236 5.848 3.44 9.461 3.44h365.53c3.784 0 7.053-1.204 9.461-3.44 0.344-0.344 0.688-0.688 1.032-1.032 0.172-0.172 0.344-0.516 0.688-0.86 2.064-2.752 2.924-6.365 2.408-10.149 0 0-1.204-3.096-3.096-8.257l-14.105-37.327-4.128-11.009-8.601-22.878-4.128-11.009-2.924-7.741c-1.548-3.784-2.408-6.193-2.58-6.537-0.688-1.376-1.72-2.752-2.752-4.128-1.72-2.064-1.72-4.988-0.172-6.881 0.172-0.344 0.516-0.516 0.688-0.86 0 0 0 0 0 0 1.032-0.86 2.408-1.376 3.612-1.376 1.548 0 3.096 0.688 4.128 1.892 0 0.172 0.172 0.172 0.172 0.344 2.752 3.268 4.988 7.053 6.193 11.009 0 0.172 0.516 1.376 1.376 3.612l3.956 10.665h298.272v-153.437h-253.893v2.752c0 3.096-2.408 5.504-5.504 5.504s-5.504-2.408-5.504-5.504v-63.645c0-9.117-7.397-16.513-16.513-16.513h-381.699c-9.117 0-16.513 7.397-16.513 16.513v63.645c0 3.096-2.408 5.504-5.504 5.504s-5.504-2.408-5.504-5.504v-63.645c0-15.137 12.385-27.522 27.522-27.522h381.699c15.137 0 27.522 12.385 27.522 27.522v49.884h259.397c3.096 0 5.504 2.408 5.504 5.504v164.445c0 3.096-2.408 5.504-5.504 5.504h-5.504v22.878h5.504zM840.805 466.836h-283.479l8.601 22.878h274.879v-22.878zM532.040 489.713l-13.761-33.887-2.064-5.332c-0.516-2.924 1.548-5.848 4.644-6.193 0.344 0 0.516 0 0.86 0s0.86 0 1.204 0.172c2.236 0.516 3.956 2.236 4.3 4.644l2.752 6.881 4.3 11.009 13.245 33.887 17.029 43.692c0.172 1.548-0.172 3.096-1.204 4.472-1.032 1.204-2.58 1.892-4.128 1.892h-358.993c-1.548 0-3.096-0.688-4.128-1.892s-1.548-2.752-1.204-4.472l37.327-95.296c0.516-3.096 3.268-5.16 6.193-4.644 3.096 0.516 5.16 3.268 4.644 6.193l-36.295 89.103h345.92l-15.997-39.219-4.644-11.009z" />
<glyph unicode="&#xe91a;" glyph-name="Winter-Icons_black-07" d="M782.492 271.083c3.096 0 5.504 2.408 5.504 5.504v27.522h27.522c3.096 0 5.504 2.408 5.504 5.504s-2.408 5.504-5.504 5.504h-33.027c-3.096 0-5.504-2.408-5.504-5.504v-33.027c0-3.096 2.408-5.504 5.504-5.504zM837.537 522.74h-287.264v79.299c0 1.204-0.344 2.408-1.204 3.44l-44.036 56.937c-1.032 1.376-2.58 2.064-4.3 2.064h-79.815c-2.58 4.988-5.332 9.289-7.569 12.557-1.376 2.064-2.752 3.784-3.784 5.16 0 0 0 0.172-0.172 0.172 0 0 0 0 0 0 0 0.172-0.172 0.344-0.516 0.516-0.86 1.032-1.376 1.72-1.548 1.892 0 0-0.172 0.172-0.172 0.172s0 0 0 0c-1.032 1.204-2.58 2.924-4.3 4.644-11.009 11.697-35.091 32.511-61.409 27.35-11.697-2.236-16.341-8.429-18.233-13.245-4.128-11.181 2.408-25.114 7.569-33.715 0.86-1.548 2.408-3.784 3.784-5.848h-76.546c-1.72 0-3.268-0.86-4.3-2.064l-44.036-57.109c-0.688-1.032-1.204-2.064-1.204-3.44v-417.994c0-3.096 2.408-5.504 5.504-5.504h330.783c3.096 0 5.504 2.408 5.504 5.504v65.021h230.155c1.204 0 2.408 0.344 3.44 1.204l57.109 44.036c1.376 1.032 2.064 2.58 2.064 4.3v219.146c0 3.096-2.58 5.504-5.504 5.504zM342.652 672.736c-5.504 7.913-11.525 20.47-8.945 27.522 0.516 1.204 1.72 4.816 9.977 6.365 20.642 3.956 41.111-13.589 50.916-23.738 2.752-2.924 4.644-5.16 5.504-6.193 1.032-1.204 2.58-3.268 4.3-6.020 1.204-1.72 2.408-3.784 3.784-5.848h-59.861c-0.516 0.688-4.988 6.881-5.676 7.913zM539.264 189.549h-319.774v410.598l41.283 53.496h153.265c5.16-11.525 8.257-25.458 3.096-37.843-1.032-2.58-2.236-4.3-3.268-5.504-4.128 11.697-15.309 19.954-28.382 19.954h-0.688c-16.685 0-29.758-13.417-29.758-30.102s13.761-30.102 30.446-30.102c15.997 0 29.070 12.385 30.102 28.21 4.128 1.892 8.429 5.848 11.697 13.417 6.020 14.105 3.612 29.242-1.376 42.143h72.074l41.283-53.496v-410.77zM374.303 615.972c1.032-1.204 2.752-2.924 4.816-4.988 5.848-5.676 15.309-13.073 25.114-14.449-1.72-8.945-9.461-15.653-18.75-15.653-10.665 0-19.266 8.601-19.266 19.094-0.172 6.709 3.096 12.557 8.085 15.997zM386.516 619.068c7.053-0.516 13.245-4.816 16.169-11.009-5.332 2.064-11.353 6.537-16.169 11.009zM832.032 383.753c0 0 0 0 0 0v-82.395l-53.496-41.283h-228.263v251.657h281.759v-127.978z" />
<glyph unicode="&#xe91b;" glyph-name="Winter-Icons_black-08" d="M735.188 647.278c-17.889 24.254-63.129 35.435-107.337 40.423-2.408 15.653-2.58 27.35-2.58 27.522 0 3.096-2.408 5.504-5.504 5.504h-189.56c-3.096 0-5.504-2.408-5.504-5.504 0-0.172-0.172-12.041-2.58-27.522-44.036-4.988-89.447-16.169-107.337-40.423-37.843-51.432-2.924-149.136-0.86-154.813 1.032-3.44 21.502-67.086 56.421-129.871 41.971-75.686 86.523-119.034 132.623-129.355 0 0 0 0 0-0.172v-20.642h-98.048c-3.096 0-5.504-2.408-5.504-5.504v-28.898c0-3.096 2.408-5.504 5.504-5.504h240.132c3.096 0 5.504 2.408 5.504 5.504v28.898c0 3.096-2.408 5.504-5.504 5.504h-98.048v20.814c46.1 10.493 90.479 53.84 132.451 129.355 34.919 62.785 55.389 126.602 56.421 129.871 2.064 5.848 37.155 103.38-0.688 154.813zM638.516 201.074v-17.201h-226.887v17.201h226.887zM514.666 212.427v17.545h20.642v-17.545h-20.642zM725.556 496.25c0-0.172 0-0.172-0.172-0.344-0.86-2.58-81.191-254.237-200.396-254.237s-199.708 251.657-200.396 254.237c0 0.172 0 0.172-0.172 0.344-0.344 1.032-35.435 97.36-0.688 144.492 12.729 17.373 45.928 29.586 96.5 35.607-3.268-15.825-8.601-33.715-18.061-47.132-1.72-2.408-1.204-5.848 1.376-7.741 1.032-0.688 2.064-1.032 3.096-1.032 1.72 0 3.44 0.86 4.472 2.408 11.181 15.997 17.201 36.811 20.642 54.7 0.688 3.956 1.376 7.741 1.892 11.353 1.204 8.773 1.72 16.169 1.892 20.814h179.067c0.172-4.644 0.688-12.041 1.892-20.814 0.516-3.612 1.032-7.397 1.892-11.353 3.268-17.889 9.461-38.703 20.642-54.7 1.032-1.548 2.752-2.408 4.472-2.408 1.032 0 2.236 0.344 3.096 1.032 2.408 1.72 3.096 5.16 1.376 7.741-9.461 13.417-14.793 31.135-18.061 47.132 50.4-6.020 83.599-18.233 96.5-35.607 34.575-47.132-0.516-143.46-0.86-144.492z" />
<glyph unicode="&#xe91c;" glyph-name="Winter-Icons_black-09" d="M381.011 653.987v33.027c0 3.096-2.408 5.504-5.504 5.504s-5.504-2.408-5.504-5.504v-27.522h-27.522c-3.096 0-5.504-2.408-5.504-5.504s2.408-5.504 5.504-5.504h33.027c3.096 0 5.504 2.408 5.504 5.504zM703.366 714.536h-338.868c-1.72 0-3.268-0.86-4.3-2.064l-44.036-57.109c-0.688-1.032-1.204-2.064-1.204-3.44v-469.599c0-3.096 2.408-5.504 5.504-5.504h382.903c3.096 0 5.504 2.408 5.504 5.504v526.707c0 2.924-2.408 5.504-5.504 5.504zM697.861 241.325v-53.496h-371.895v462.202l41.283 53.496h330.611v-462.202zM485.768 522.74c0 2.924 2.408 5.504 5.332 5.504 0 0 0 0 0 0h41.283c3.096 0 5.504-2.408 5.504-5.504v-43.004c0-3.096-2.408-5.504-5.504-5.504h-41.283c-3.096 0-5.504 2.408-5.504 5.504l0.172 43.004zM491.272 464.427h41.283c8.429 0 15.309 6.881 15.309 15.309v43.004c0 8.429-6.881 15.309-15.309 15.309h-41.283c-8.429 0-15.309-6.881-15.309-15.309v-43.004c0-8.429 6.881-15.309 15.309-15.309 0 0 0 0 0 0v0zM576.763 342.813c-1.032-1.72-2.752-2.924-4.816-2.924h-119.722c-2.064 0-3.956 1.032-4.816 2.924l-54.528 102.348c-0.344 0.688-0.516 1.548-0.516 2.236 0 3.096 2.408 5.504 5.504 5.504h43.176c2.236 0 4.128-1.376 4.988-3.268 0 0 22.706-56.249 22.706-56.249 1.892-4.644 7.053-6.881 11.525-4.988 3.44 1.376 5.676 4.644 5.676 8.257v32.167c0 2.924 2.408 5.504 5.504 5.504h41.455c1.376 0 2.924-0.516 3.956-1.548s1.548-2.408 1.548-3.956v-32.167c-0.172-4.988 3.784-8.945 8.773-9.117 3.784-0.172 7.225 2.236 8.601 5.848l22.706 56.421c0.86 2.064 2.924 3.268 4.988 3.268h43.176c3.096 0 5.504-2.58 5.504-5.504 0-0.86-0.172-1.548-0.516-2.236-0.344-0.172-54.873-102.52-54.873-102.52zM637.14 458.407c-2.924 2.924-6.709 4.472-10.837 4.472h-43.176c-6.193 0-11.697-3.612-14.105-9.289 0-0.172-20.298-55.733-20.986-57.969v33.199c0 8.429-6.881 15.309-15.309 15.309h-41.455c-8.429 0-15.309-6.881-15.309-15.309v-33.199c0 0.516-0.172 0.344 0 0l-20.986 57.797c-2.408 5.676-7.913 9.461-14.105 9.461h-43.176c-8.429 0-15.309-6.881-15.309-15.309 0-2.408 0.516-4.644 1.548-6.709l54.7-102.52c2.752-4.988 7.913-8.085 13.589-8.085h119.722c5.676 0 10.837 3.096 13.589 8.085l54.356 102.176c1.032 2.064 1.72 4.472 1.72 6.881 0 4.128-1.548 8.085-4.472 11.009z" />
<glyph unicode="&#xe91d;" glyph-name="Winter-Icons_black-10" d="M381.011 653.987v33.027c0 3.096-2.408 5.504-5.504 5.504s-5.504-2.408-5.504-5.504v-27.522h-27.522c-3.096 0-5.504-2.408-5.504-5.504s2.408-5.504 5.504-5.504h33.027c3.096 0 5.504 2.408 5.504 5.504zM703.366 714.536h-338.868c-1.72 0-3.268-0.86-4.3-2.064l-44.036-57.109c-0.688-1.032-1.204-2.064-1.204-3.44v-469.599c0-3.096 2.408-5.504 5.504-5.504h382.903c3.096 0 5.504 2.408 5.504 5.504v526.707c0 2.924-2.408 5.504-5.504 5.504zM697.861 241.325v-53.496h-371.895v462.202l41.283 53.496h330.611v-462.202zM665.695 618.38h-306.701c-3.096 0-5.504-2.408-5.504-5.504v-192.312c0-3.096 2.408-5.504 5.504-5.504h306.701c3.096 0 5.504 2.408 5.504 5.504v192.312c0 2.924-2.408 5.504-5.504 5.504zM660.19 425.896h-295.692v181.475h295.692v-181.475zM492.82 397.342h-133.827c-3.096 0-5.504-2.408-5.504-5.504v-38.875c0-3.096 2.408-5.504 5.504-5.504h133.827c3.096 0 5.504 2.408 5.504 5.504v38.875c0 3.096-2.408 5.504-5.504 5.504zM487.316 358.467h-122.818v27.866h122.818v-27.866zM492.82 329.912h-133.827c-3.096 0-5.504-2.408-5.504-5.504v-38.875c0-3.096 2.408-5.504 5.504-5.504h133.827c3.096 0 5.504 2.408 5.504 5.504v38.875c0 3.096-2.408 5.504-5.504 5.504zM487.316 291.037h-122.818v27.866h122.818v-27.866zM492.82 262.483h-133.827c-3.096 0-5.504-2.408-5.504-5.504v-38.875c0-3.096 2.408-5.504 5.504-5.504h133.827c3.096 0 5.504 2.408 5.504 5.504v38.875c0 3.096-2.408 5.504-5.504 5.504zM487.316 223.608h-122.818v27.866h122.818v-27.866zM665.695 397.342h-133.827c-3.096 0-5.504-2.408-5.504-5.504v-38.875c0-3.096 2.408-5.504 5.504-5.504h133.827c3.096 0 5.504 2.408 5.504 5.504v38.875c0 3.096-2.408 5.504-5.504 5.504zM660.19 358.467h-122.818v27.866h122.818v-27.866zM665.695 329.912h-133.827c-3.096 0-5.504-2.408-5.504-5.504v-38.875c0-3.096 2.408-5.504 5.504-5.504h133.827c3.096 0 5.504 2.408 5.504 5.504v38.875c0 3.096-2.408 5.504-5.504 5.504zM660.19 291.037h-122.818v27.866h122.818v-27.866zM665.695 262.483h-133.827c-3.096 0-5.504-2.408-5.504-5.504v-38.875c0-3.096 2.408-5.504 5.504-5.504h133.827c3.096 0 5.504 2.408 5.504 5.504v38.875c0 3.096-2.408 5.504-5.504 5.504zM660.19 223.608h-122.818v27.866h122.818v-27.866zM508.302 669.468h8.085c0.86 0 1.548 0.344 2.064 0.86s0.86 1.376 0.86 2.064v8.429c0 0.86-0.344 1.548-0.86 2.064s-1.376 0.86-2.064 0.86h-8.085c-1.72 0-2.924-1.376-2.924-2.924v-8.429c0-0.86 0.344-1.548 0.86-2.064s1.376-0.86 2.064-0.86zM507.27 680.821c0 0.344 0.172 0.516 0.344 0.688s0.516 0.344 0.688 0.344h8.085c0.344 0 0.516-0.172 0.688-0.344s0.344-0.516 0.344-0.688v-8.429c0-0.516-0.516-1.032-1.032-1.032h-8.085c-0.344 0-0.516 0.172-0.688 0.344s-0.344 0.516-0.344 0.688v8.429zM497.981 644.87c0.516-1.032 1.548-1.548 2.58-1.548h23.394c1.032 0 2.064 0.688 2.58 1.548 0 0 10.665 19.954 10.665 19.954 0.172 0.516 0.344 0.86 0.344 1.376 0 0.86-0.344 1.548-0.86 2.064s-1.376 0.86-2.064 0.86h-8.257c-1.204 0-2.236-0.688-2.752-1.892 0 0-3.956-10.837-4.128-11.353v6.537c0 0.86-0.344 1.548-0.86 2.064s-1.376 0.86-2.064 0.86h-8.085c-1.72 0-2.924-1.376-2.924-2.924v-6.537c0 0-4.128 11.353-4.128 11.353-0.516 1.204-1.548 1.892-2.752 1.892h-8.429c-1.72 0-2.924-1.376-2.924-2.924 0-0.516 0.172-0.86 0.344-1.376-0.172 0 10.321-19.954 10.321-19.954zM489.38 666.888c0.172 0.172 0.516 0.344 0.688 0.344h8.429c0.516 0 0.86-0.172 1.032-0.688 0 0 4.472-11.009 4.472-11.009 0.344-0.688 0.86-1.032 1.548-1.032 0.516 0 0.86 0.172 1.204 0.516s0.516 0.688 0.516 1.204v6.365c0 0.344 0.172 0.516 0.344 0.688s0.516 0.344 0.688 0.344h8.085c0.344 0 0.516-0.172 0.688-0.344s0.344-0.516 0.344-0.688v-6.365c0-0.516 0.172-0.86 0.516-1.204s0.688-0.516 1.204-0.516c0.688 0 1.376 0.344 1.548 1.032l4.472 11.009c0.172 0.344 0.516 0.688 1.032 0.688h8.429c0.344 0 0.516-0.172 0.688-0.344s0.344-0.516 0.344-0.688c0-0.172 0-0.344-0.172-0.516 0 0-10.665-19.954-10.665-19.954-0.172-0.344-0.516-0.516-0.86-0.516h-23.394c-0.344 0-0.688 0.172-1.032 0.516 0 0-10.665 19.954-10.665 19.954 0 0.172-0.172 0.344-0.172 0.516 0.344 0.344 0.344 0.516 0.688 0.688z" />
<glyph unicode="&#xe91e;" glyph-name="Winter-Icons_black-11" d="M800.21 684.777h-493.336c-3.096 0-5.504-2.408-5.504-5.504v-35.951h-35.951c-3.096 0-5.504-2.408-5.504-5.504v-35.951h-35.951c-3.096 0-5.504-2.408-5.504-5.504v-369.142c0-3.096 2.408-5.504 5.504-5.504h493.336c3.096 0 5.504 2.408 5.504 5.504v35.951h35.951c3.096 0 5.504 2.408 5.504 5.504v35.951h35.951c3.096 0 5.504 2.408 5.504 5.504v369.142c0 3.096-2.408 5.504-5.504 5.504zM711.622 315.635v-82.911h-482.328v358.133h482.328v-275.223zM753.25 315.635v-41.455h-30.446v322.182c0 3.096-2.408 5.504-5.504 5.504h-446.377v30.446h482.328v-316.678zM794.533 357.779v-41.455h-30.446v322.182c0 3.096-2.408 5.504-5.504 5.504h-446.377v30.446h482.328v-316.678z" />
<glyph unicode="&#xe91f;" glyph-name="Winter-Icons_black-12" d="M770.623 614.94c0 33.543-22.706 71.042-56.593 73.278-0.172 0-0.172 0-0.344 0h-396.665c-40.423 0-73.278-32.855-73.278-73.278v-391.16c0-3.096 2.408-5.504 5.504-5.504h484.736c3.096 0 5.504 2.408 5.504 5.504v340.588c18.578 9.461 31.135 28.554 31.135 50.572zM728.652 229.284h-473.727v385.656c0 34.403 27.866 62.269 62.269 62.269s62.269-27.866 62.269-62.269c0-25.286-20.642-45.928-45.928-45.928s-45.928 20.642-45.928 45.928c0 0 0 0 0 0 0 16.341 13.245 29.758 29.758 29.758s29.758-13.245 29.758-29.758c0-7.397-6.020-13.417-13.417-13.417s-13.417 6.020-13.417 13.417c0 3.096-2.408 5.504-5.504 5.504s-5.504-2.408-5.504-5.504c0-13.417 11.009-24.426 24.426-24.426s24.426 11.009 24.426 24.426c0 22.534-18.233 40.767-40.767 40.767-22.362 0-40.767-18.233-40.767-40.767 0 0 0 0 0 0 0-31.479 25.63-56.937 56.937-56.937h380.323c5.16 0 10.149 0.688 14.965 2.064v-330.783zM713.687 569.012h-346.78c14.105 10.321 23.394 27.178 23.394 45.928 0 26.318-13.933 49.368-34.747 62.269h357.789c22.362-1.548 46.1-27.006 46.1-62.269 0.172-25.286-20.47-45.928-45.756-45.928z" />
<glyph unicode="&#xe920;" glyph-name="Winter-Icons_black-13" d="M784.556 207.61l-74.482 356.757c-0.516 2.58-2.752 4.3-5.332 4.3h-153.953c21.158 13.073 35.263 36.295 35.263 62.957 0 40.767-33.199 73.966-73.966 73.966s-73.966-33.199-73.966-73.966c0-26.49 14.105-49.884 35.263-62.957h-153.953c-2.58 0-4.816-1.892-5.332-4.3l-74.482-356.757c-0.344-1.548 0-3.268 1.032-4.644s2.58-2.064 4.3-2.064h534.276c1.72 0 3.268 0.688 4.3 2.064s1.376 2.924 1.032 4.644zM448.957 631.625c0 34.747 28.21 62.957 62.957 62.957s62.957-28.21 62.957-62.957-28.21-62.957-62.957-62.957c-34.575 0-62.957 28.21-62.957 62.957zM251.485 211.911l72.246 345.748h376.367l72.246-345.748h-520.859z" />
<glyph unicode="&#xe921;" glyph-name="Winter-Icons_black-14" d="M886.045 530.997h-373.787l44.724 47.992-8.085 7.569-31.479-33.887v89.791c0 3.096-2.408 5.504-5.504 5.504s-5.504-2.408-5.504-5.504v-89.791l-31.479 33.887-8.085-7.569 44.724-47.992h-373.615c-3.096 0-5.504-2.408-5.504-5.504v-147.932c0-3.096 2.408-5.504 5.504-5.504h373.787l-44.724-47.992 8.085-7.569 31.479 33.887v-89.791c0-3.096 2.408-5.504 5.504-5.504s5.504 2.408 5.504 5.504v89.791l31.479-33.887 8.085 7.569-44.724 47.992h373.787c3.096 0 5.504 2.408 5.504 5.504v147.932c-0.172 2.924-2.58 5.504-5.676 5.504zM880.54 383.065h-737.080v136.923h737.080v-136.923z" />
<glyph unicode="&#xe922;" glyph-name="Winter-Icons_black-15" d="M512.086 166.671c-2.236 0-4.128 1.376-4.988 3.268-11.869 27.006-29.586 44.724-52.98 52.636-49.54 16.857-108.025-14.965-108.713-15.309-2.408-1.376-5.332-0.688-6.881 1.376l-55.217 69.15c-1.032 1.204-1.376 2.924-1.032 4.472s1.204 2.924 2.58 3.784c0.86 0.516 83.255 50.4 83.255 145.696 0 39.563-13.761 71.214-40.767 94.264-20.298 17.373-40.939 23.050-41.283 23.222-1.376 0.344-2.752 1.376-3.44 2.752s-0.86 2.924-0.516 4.3l23.050 73.622c0.688 2.236 2.924 3.784 5.332 3.784 41.971 0 77.062 13.589 104.413 40.251 20.47 20.126 28.554 40.423 28.726 40.595 0.86 2.064 2.924 3.44 5.16 3.44h126.946c2.236 0 4.3-1.376 5.16-3.44 0-0.172 8.257-20.642 28.726-40.595 27.178-26.662 62.441-40.251 104.413-40.251 2.408 0 4.472-1.548 5.332-3.784l23.050-73.622c0.516-1.376 0.344-2.924-0.516-4.3s-1.892-2.236-3.44-2.58c-0.172 0-20.814-5.848-41.111-23.222-27.006-23.050-40.767-54.873-40.767-94.264 0-95.296 82.395-145.18 83.255-145.696 1.376-0.86 2.408-2.236 2.58-3.784 0.344-1.548-0.172-3.268-1.032-4.472l-55.217-69.15c-1.72-2.064-4.644-2.752-6.881-1.376-0.516 0.344-59.345 32.167-108.713 15.309-23.394-7.913-41.111-25.63-52.98-52.636-1.376-2.064-3.44-3.44-5.504-3.44zM422.123 238.573c11.697 0 23.738-1.548 35.263-5.504 23.222-7.913 41.627-24.082 54.528-48.336 13.073 24.254 31.307 40.423 54.528 48.336 46.616 15.825 98.392-6.709 113.357-13.933l48.68 60.893c-7.913 5.332-23.394 17.201-39.047 35.607-20.126 23.566-44.38 62.957-44.38 116.282 0 53.668 24.426 85.663 44.896 103.036 15.825 13.417 31.651 20.298 39.735 23.394l-20.298 64.677c-54.012 1.032-88.587 24.254-108.369 43.692-17.029 16.857-25.974 33.543-29.242 40.595h-119.894c-3.268-7.053-12.213-23.738-29.242-40.595-19.782-19.438-54.356-42.659-108.369-43.692l-20.126-65.193c8.085-2.924 23.738-9.805 39.735-23.394 20.47-17.373 44.896-49.368 44.896-103.036 0-29.414-7.741-73.45-44.38-116.282-15.653-18.233-31.135-30.102-39.047-35.607l48.68-60.893c11.181 5.848 43.176 19.954 78.094 19.954z" />
<glyph unicode="&#xe923;" glyph-name="pdf" horiz-adv-x="2003" d="M556.522 550.4c0-71.235-37.843-106.852-106.852-106.852h-80.139v211.478h80.139c66.783 0 106.852-28.939 106.852-104.626zM981.704 652.8h-75.687v-416.278h71.235c106.852 0 173.635 53.426 173.635 211.478 0 151.374-69.009 204.8-169.183 204.8zM1981.217 937.739v-979.478h-1958.957v979.478h1958.957zM687.861 550.4c0 142.47-100.174 198.122-233.739 198.122h-213.704v-612.174h131.339v209.252h71.235c135.791 0 244.87 55.652 244.87 204.8zM1291.13 450.226c0 209.252-126.887 298.296-307.2 298.296h-207.026v-612.174h211.478c178.087 0 302.748 104.626 302.748 313.878zM1776.417 748.522h-385.113v-612.174h131.339v235.965h240.417v97.948h-240.417v178.087h253.774v100.174z" />
<glyph unicode="&#xe924;" glyph-name="arrow-left" d="M1024 504.889h-807.822l204.8 204.8-79.644 79.644-341.333-341.333 341.333-341.333 79.644 79.644-204.8 204.8h807.822z" />
<glyph unicode="&#xe925;" glyph-name="add-plus-button" d="M938.668 365.716h-365.713v-365.713h-121.906v365.713h-365.713v121.906h365.713v365.713h121.906v-365.713h365.713v-121.906z" />
<glyph unicode="&#xe926;" glyph-name="Winter-Icons_Black-16" d="M772.094 182.47h-520.188c-3.040 0-5.505 2.465-5.505 5.505v0 520.119c0 3.040 2.465 5.505 5.505 5.505v0h520.188c3.036-0.010 5.495-2.468 5.505-5.504v-520.189c-0.048-3.007-2.492-5.427-5.504-5.436h-0.001zM257.411 193.479h509.179v509.179h-509.179zM339.24 309.971c-2.89 2.615-7.758 3.286-12.041-1.067-3.87-3.836-4.662-8.412-1.479-11.611s6.313-3.131 11.904 0.705l10.321 7.104c11.112 7.603 21.709 7.586 30.052-0.774 12.833-12.867 10.545-28.194-4.128-42.816-14.26-14.209-27.695-17.030-40.149-5.677l15.327 15.293c4.645-3.784 10.098-3.44 14.742 1.204 4.954 4.937 5.247 10.321 1.978 13.572s-6.674 3.062-12.85-1.204l-10.321-6.881c-8.721-5.797-20.35-7.672-29.983 1.995-10.218 10.321-10.184 25.356 4.128 39.565 15.568 15.482 28.263 14.26 37.535 5.522zM399.379 324.971l17.821-17.873-14.673-14.725-55.442 55.631 20.797 20.642c12.729 12.678 27.523 17.202 40.734 3.922 14.415-14.467 8.601-30-4.421-43.005zM394.906 341.537c5.161 5.161 5.161 10.872-0.482 16.617s-11.25 5.47-16.342 0.396l-6.107-6.090 16.892-16.944zM396.661 397.495l37.225 37.105 10.734-10.751-22.466-22.363 12.041-12.041 21.657 21.675 10.442-10.459-21.743-21.675 11.749-11.783 23.257 23.188 10.579-10.614-38.016-37.844zM484.408 428.717c11.801-11.852 21.898-13.762 28.142-7.586 4.731 4.696 5.384 11.164-1.273 19.008l14.983 14.931c12.248-13.297 11.491-30.138-2.684-44.278-18.767-18.699-37.707-15.482-54.375 1.325-18.406 18.475-20.402 38.945-3.44 55.906 15.774 15.723 31.669 15.052 44.725 2.976l-15.069-15.017c-7.328 6.606-14.45 5.9-19.025 1.325-5.315-5.333-4.817-15.723 8.016-28.59zM498.307 498.815l14.759 14.708 55.442-55.614-14.759-14.708zM600.16 509.463l-19.335-19.266 6.726-13.297-13.882-13.848-36.124 74.829 16.29 16.239 74.863-36.21-15.327-15.293zM563.744 522.45l9.926-18.389 12.643 12.609-18.2 9.977c-4.138 2.189-7.66 4.425-10.992 6.902l0.224-0.159-0.138-0.155c2.111-3.022 4.278-6.548 6.246-10.197l0.29-0.589zM578.434 578.684l14.759 14.708 44.416-44.519 22.036 21.967 11.009-11.061-36.778-36.709zM663.997 633.713c-2.907 2.615-7.775 3.286-12.041-1.067-3.853-3.853-4.662-8.412-1.479-11.611s6.313-3.131 11.904 0.705l10.321 7.087c11.13 7.62 21.726 7.586 30.052-0.774 12.833-12.867 10.562-28.177-4.128-42.816-14.243-14.209-27.678-17.013-40.149-5.659l15.344 15.275c4.627-3.784 10.080-3.44 14.725 1.221 4.954 4.92 5.247 10.321 1.995 13.572s-6.674 3.062-12.85-1.221l-10.321-6.881c-8.721-5.78-20.333-7.655-29.983 2.013-10.218 10.321-10.184 25.356 4.146 39.565 15.482 15.482 28.246 14.243 37.535 5.522z" />
<glyph unicode="&#xe927;" glyph-name="zip" horiz-adv-x="1625" d="M1317.843 550.4c0-71.235-37.843-106.852-106.852-106.852h-80.139v211.478h80.139c66.783 0 106.852-28.939 106.852-104.626zM1602.783 937.739v-979.478h-1580.522v979.478h1580.522zM652.243 238.748h-311.652l307.2 418.504v91.27h-449.67v-100.174h293.843l-307.2-420.73v-91.27h467.478v102.4zM877.078 748.522h-131.339v-612.174h131.339v612.174zM1446.957 550.4c0 142.47-100.174 198.122-233.739 198.122h-213.704v-612.174h131.339v209.252h71.235c135.791 0 244.87 55.652 244.87 204.8z" />
<glyph unicode="&#xe928;" glyph-name="Winter-Icons_Black-05" d="M809.096 395.138h-189.084c-3.040 0-5.505-2.465-5.505-5.505v0-101.767c0-3.040 2.465-5.505 5.505-5.505h189.084c3.040 0 5.505 2.465 5.505 5.505v0 101.767c0 3.040-2.465 5.505-5.505 5.505v0zM803.591 293.371h-178.075v90.758h178.075zM809.096 255.888h-189.084c-3.040 0-5.505-2.465-5.505-5.505v0-101.767c0 0 0 0 0 0 0-3.031 2.457-5.487 5.487-5.487 0.006 0 0.012 0 0.018 0h189.083c0.005 0 0.011 0 0.017 0 3.031 0 5.487 2.457 5.487 5.487 0 0 0 0 0 0v0 101.767c0 3.040-2.465 5.505-5.505 5.505v0zM803.591 154.121h-178.075v90.758h178.075zM199.715 235.246h329.47c3.040 0 5.505 2.465 5.505 5.505s-2.465 5.505-5.505 5.505h-329.47c-0.010 0-0.022 0-0.034 0-9.111 0-16.497-7.386-16.497-16.497 0-7.681 5.249-14.136 12.356-15.973l0.115-0.025c0.679-0.331 1.477-0.527 2.32-0.533h331.209c3.040 0 5.505 2.465 5.505 5.505s-2.465 5.505-5.505 5.505h-329.47c-3.040 0-5.505 2.465-5.505 5.505s2.465 5.505 5.505 5.505v0zM862.8 608.116c-0.036 0.744-0.184 1.443-0.428 2.094l0.016-0.047c-0.16 0.395-0.345 0.735-0.562 1.050l0.012-0.018c-0.391 0.578-0.878 1.060-1.443 1.433l-0.019 0.012-30.585 30.362v64.8c0 3.040-2.465 5.505-5.505 5.505h-267.577v23.068c-0.020 9.109-7.404 16.487-16.513 16.497h-340.48c-21.264-0.020-38.496-17.252-38.515-38.513v-484.616c0.033-20.245 15.66-36.829 35.509-38.386l0.133-0.008c0.324-0.077 0.697-0.121 1.079-0.121 0.020 0 0.039 0 0.059 0h342.162c9.11 0.010 16.494 7.388 16.514 16.495v44.039c0 3.040-2.465 5.505-5.505 5.505s-5.505-2.465-5.505-5.505v-44.037c-0.010-3.033-2.471-5.487-5.505-5.487 0 0 0 0 0 0h-340.427c-15.201 0-27.523 12.323-27.523 27.523s12.323 27.523 27.523 27.523v0h340.427c9.11 0.010 16.494 7.388 16.514 16.495v165.829h300.639c3.040 0 5.505 2.465 5.505 5.505v0 162.989zM818.815 702.314v-83.223c0-3.040 2.465-5.505 5.505-5.505s5.505 2.465 5.505 5.505v0 8.704l14.312-14.192h-392.068l14.553 14.863v-9.375c0-3.040 2.465-5.505 5.505-5.505s5.505 2.465 5.505 5.505v0 83.223h341.184zM545.699 273.761c-0.010-3.033-2.471-5.487-5.505-5.487 0 0 0 0 0 0h-340.479c-0.010 0-0.023 0-0.035 0-10.776 0-20.514-4.446-27.48-11.603l-0.008-0.009v457.693c0 15.201 12.323 27.523 27.523 27.523v0h340.427c3.036-0.010 5.495-2.468 5.505-5.504v-23.069h-73.521c-3.040 0-5.505-2.465-5.505-5.505v0-63.888l-30.671-31.394c-0.529-0.379-0.974-0.835-1.33-1.358l-0.012-0.019c-0.003-0.018-0.004-0.039-0.004-0.060s0.002-0.042 0.005-0.063v0.002c-0.162-0.246-0.312-0.529-0.435-0.826l-0.013-0.034c-0.004-0.031-0.006-0.067-0.006-0.103s0.002-0.072 0.006-0.108v0.004c-0.094-0.227-0.177-0.498-0.235-0.777l-0.005-0.031c-0.004-0.069-0.006-0.151-0.006-0.232s0.002-0.163 0.007-0.243l-0.001 0.011c0-0.206 0-0.396 0-0.585v-162.989c0-3.040 2.465-5.505 5.505-5.505v0h106.652zM851.791 450.615h-407.171v151.98h407.171z" />
<glyph unicode="&#xe929;" glyph-name="arrow-left-2" horiz-adv-x="512" d="M512 960l-512-512 512-512v1024z" />
<glyph unicode="&#xe92a;" glyph-name="arrow-right-2" horiz-adv-x="512" d="M0-64l512 512-512 512v-1024z" />
<glyph unicode="&#xe92b;" glyph-name="contact-btn" horiz-adv-x="1604" d="M847.855 140.862l-175.765 142.513-0.998 0.143q-9.073 7.482-26.127 10c-2.947 0.497-6.341 0.781-9.802 0.781-12.875 0-24.832-3.931-34.736-10.658l0.216 0.139-65.485-49.476c-2.031-1.311-4.448-2.208-7.047-2.51l-0.078-0.007c-1.581-0.375-3.395-0.59-5.26-0.59-0.506 0-1.008 0.016-1.506 0.047l0.068-0.003-12.114 4.347q-12.114 4.347-33.799 19.809t-52.848 46.127q-31.163 30.64-69.261 83.132-39.262 51.732-59.119 89.902t-28.265 63.893q-9.976 29.001-10.855 50.592c0.523 2.726 1.43 5.154 2.675 7.365l-0.063-0.121c1.069 2.366 2.571 4.362 4.421 5.968l0.021 0.018 56.197 41.661c9.848 7.391 17.365 17.397 21.571 28.991l0.139 0.438c2.186 5.358 3.455 11.575 3.455 18.088 0 6.306-1.19 12.335-3.357 17.873l0.115-0.334-76.743 218.519c-3.632 8.13-8.425 15.082-14.26 21.006l0.009-0.009c-5.692 5.778-13.229 9.723-21.656 10.88l-0.196 0.022c-1.885 0.283-4.060 0.445-6.274 0.445-10.477 0-20.109-3.622-27.711-9.682l0.090 0.069-152.488-113.036c-8.156-5.65-14.963-12.61-20.276-20.644l-0.175-0.281c-5.483-7.786-9.978-16.787-13.018-26.432l-0.188-0.693c-0.214-1.33-1.52-7.933-3.967-19.833s-3.563-28.503-3.349-49.998c0.728-27.995 3.558-54.786 8.345-80.893l-0.484 3.176q7.529-45.485 27.552-103.060t56.601-127.287 96.267-148.997q74.629-101.896 144.888-164.388t127.952-97.051q57.599-34.583 99.070-47.385t60.449-15.605c5.32-0.784 9.691-1.259 13.040-1.425s5.415-0.285 6.081-0.38c10.657 0.040 20.895 1.775 30.477 4.949l-0.692-0.199c9.973 2.975 18.636 7.595 26.134 13.607l-0.15-0.116 152.37 112.086c12.074 8.414 19.882 22.223 19.904 37.857v0.003q-0.95 20.546-19.999 36.649zM1578.421 915.465h-1070.435c-0.007 0-0.015 0-0.024 0-14.062 0-25.462-11.4-25.462-25.462 0-0.008 0-0.017 0-0.025v0.001-513.876c2.375-2.375 4.584-4.75 6.817-6.912 12.969-12.755 22.826-21.614 30.165-27.742l13.99 10.57v512.475h967.945l-458.202-458.178-458.273 458.178h-51.495v-20.569l315.689-315.689-151.372-151.372c19.002-6.959 44.155-27.932 44.155-27.932l143.273 143.249 139.947-139.947c4.606-4.62 10.977-7.479 18.016-7.479s13.41 2.859 18.015 7.478l139.972 139.948 341.294-341.294h-588.22c3.351-8.716 5.986-18.909 7.446-29.477l0.083-0.735 1.378-5.582-0.214-12.565c0-0.879 0-1.734-0.119-2.613h615.63c14.076 0 25.486 11.41 25.486 25.486v0 764.58c0 0.007 0 0.015 0 0.024 0 14.062-11.4 25.462-25.462 25.462-0.008 0-0.017 0-0.025 0h0.001zM1552.935 212.546l-315.713 315.665 315.713 315.713z" />
<glyph unicode="&#xe92c;" glyph-name="dropdown-arrow" horiz-adv-x="1654" d="M1457.231 960l-630.154-630.154-630.154 630.154-196.923-196.923 827.077-827.077 827.077 827.077-196.923 196.923z" />
<glyph unicode="&#xe92d;" glyph-name="modal-navigation-arrow-left" horiz-adv-x="614" d="M512-64l102.4 102.4-409.6 409.6 409.6 409.6-102.4 102.4-512-512z" />
<glyph unicode="&#xe92e;" glyph-name="modal-navigation-arrow-right" horiz-adv-x="614" d="M102.4 960l-102.4-102.4 409.6-409.6-409.6-409.6 102.4-102.4 512 512z" />
<glyph unicode="&#xe92f;" glyph-name="play-icon" horiz-adv-x="757" d="M757.347 448l-757.333 512v-1024z" />
<glyph unicode="&#xe930;" glyph-name="phone-outline" horiz-adv-x="868" d="M217.533 904.767l74.879-213.186v-0.166l-0.333-0.903c-0.805-2.246-2.195-4.118-3.986-5.49l-0.028-0.021-57.727-42.808-1.449-1.235c-6.822-5.965-12.406-13.151-16.448-21.242l-0.181-0.399c-3.169-5.992-5.641-12.94-7.051-20.266l-0.076-0.473-1.069-5.701 0.238-5.796c0.784-19.456 5.179-40.623 13.446-64.735 6.557-19.907 16.819-43.212 31.382-71.268s35.396-59.817 63.428-96.782c27.177-37.416 51.55-66.517 74.451-89.085s42.214-39.34 59.010-51.313c18.72-13.351 33.401-21.689 46.182-26.298l12.116-4.347 6.865-2.376 7.269-0.451c1.497 0 3.017-0.143 4.537-0.143 4.942 0.003 9.77 0.487 14.44 1.408l-0.472-0.078c9.719 1.581 18.406 5.009 26.044 9.926l-0.269-0.162 1.734 1.093 1.639 1.235 63.903 48.296c1.533 0.882 3.37 1.402 5.329 1.402 0.014 0 0.028 0 0.042 0h-0.002c0.004 0 0.009 0 0.014 0 0.608 0 1.203-0.052 1.782-0.151l-0.062 0.009h0.641c1.473-0.214 2.542-0.451 3.231-0.618l8.956-7.388 1.212-0.166 161.825-131.204-148.831-109.61c-2.422-1.953-5.283-3.476-8.402-4.398l-0.174-0.044-1.33-0.428c-3.713-1.242-8.001-2.045-12.449-2.23l-0.094-0.003-5.131 0.285c-0.618 0-2.993 0.19-8.101 0.926-5.654 0.831-20.026 3.753-52.881 13.897-23.613 7.293-53.166 21.547-87.897 42.404-35.634 21.38-76.019 52.073-120.3 91.437s-90.273 91.722-137.784 156.433l-0.19 0.285-0.214 0.261c-38.010 50.434-68.892 98.207-91.864 142.037s-41.122 84.547-53.593 120.371-20.881 67.324-25.419 94.667v0.618c-3.871 20.534-6.435 44.547-7.113 69.032l-0.014 0.644c-0.214 22.996 1.354 34.185 2.376 38.841 1.853 9.051 2.898 14.254 3.516 17.342 1.506 4.117 3.39 7.678 5.681 10.933l-0.098-0.147 0.404 0.594 0.404 0.618c1.778 2.706 3.993 4.967 6.57 6.741l0.082 0.053 0.76 0.523 146.645 108.802zM221.144 960.024c-0.003 0-0.007 0-0.011 0-10.478 0-20.108-3.625-27.706-9.69l0.089 0.069-152.466-113.078c-8.161-5.647-14.971-12.608-20.279-20.648l-0.175-0.281c-5.486-7.787-9.981-16.789-13.020-26.437l-0.188-0.692c-0.214-1.33-1.52-7.934-3.967-19.836s-3.563-28.507-3.35-49.887c0.726-27.997 3.556-54.793 8.347-80.904l-0.483 3.174q7.531-45.469 27.557-103.077t56.61-127.308 96.283-149.021q74.665-101.913 144.911-164.415t127.973-97.067q57.632-34.565 99.086-47.512t60.34-15.513c5.321-0.784 9.692-1.259 13.042-1.425s5.416-0.285 6.082-0.38c10.66 0.045 20.899 1.78 30.484 4.95l-0.694-0.199c9.974 2.982 18.637 7.602 26.14 13.61l-0.151-0.117 152.394 112.104c12.070 8.421 19.877 22.229 19.907 37.862v0.005q-0.95 20.549-20.003 36.655l-175.794 142.536-0.998 0.143q-9.075 7.483-26.132 10.001c-2.949 0.499-6.346 0.784-9.81 0.784-0.001 0-0.001 0-0.002 0v0c-0.009 0-0.020 0-0.032 0-12.864 0-24.81-3.933-34.701-10.662l0.215 0.138-65.471-49.579c-2.033-1.304-4.45-2.2-7.046-2.51l-0.081-0.008c-1.574-0.369-3.385-0.585-5.244-0.594h-1.455l-12.116 4.347q-12.116 4.347-33.805 19.812t-52.857 46.134q-31.168 30.645-69.272 83.146-39.269 51.74-59.129 89.916t-28.27 63.903q-9.977 29.006-10.856 50.6c0.515 2.725 1.423 5.155 2.675 7.364l-0.062-0.118c1.066 2.368 2.569 4.365 4.421 5.968l0.021 0.018 56.207 41.668c9.849 7.393 17.367 17.401 21.574 28.996l0.139 0.438c2.188 5.359 3.458 11.577 3.458 18.091 0 6.308-1.19 12.337-3.359 17.876l0.115-0.333-76.755 218.555c-3.633 8.131-8.426 15.085-14.262 21.009l0.009-0.009c-5.69 5.783-13.23 9.73-21.66 10.882l-0.195 0.022c-1.862 0.287-4.010 0.451-6.197 0.451-0.026 0-0.052 0-0.079 0h0.004z" />
<glyph unicode="&#xe931;" glyph-name="check2" d="M512 960c-282.76 0-512-229.24-512-512s229.24-512 512-512 512 229.24 512 512-229.24 512-512 512zM410 194.3l-255.12 255.12 70.7 70.72 184.42-184.42 388.9 388.9 70.72-70.62z" />
<glyph unicode="&#xe932;" glyph-name="twitter-logo-silhouette" d="M925.51 704.407c-30.439-13.49-63.099-22.636-97.418-26.723 35.037 20.98 61.864 54.267 74.574 93.799-32.866-19.429-69.146-33.539-107.8-41.189-30.958 33.022-74.986 53.595-123.826 53.595-93.691 0-169.662-75.972-169.662-169.609 0-13.284 1.496-26.255 4.39-38.654-140.979 7.078-265.995 74.629-349.661 177.261-14.629-25.011-22.945-54.159-22.945-85.271 0-58.863 29.973-110.801 75.453-141.185-27.806 0.931-53.954 8.581-76.85 21.293v-2.12c0-82.171 58.505-150.75 136.070-166.358-14.212-3.825-29.201-5.941-44.7-5.941-10.955 0-21.553 1.084-31.934 3.154 21.602-67.445 84.241-116.488 158.448-117.833-58.039-45.48-131.216-72.506-210.699-72.506-13.696 0-27.186 0.824-40.462 2.33 75.091-48.221 164.234-76.331 260.048-76.331 312.093 0 482.688 258.499 482.688 482.688l-0.567 21.965c33.331 23.777 62.166 53.641 84.857 87.646z" />
<glyph unicode="&#xe933;" glyph-name="tick" d="M300.142 247.717l-193.66 193.658-106.483-106.483 255.559-255.557 0.293 0.295 46.655-46.655 721.493 721.497-108.548 108.552z" />
<glyph unicode="&#xe934;" glyph-name="minus" d="M104.155 428.942v43.707h807.545v-43.707h-807.545z" />
<glyph unicode="&#xe935;" glyph-name="plus" d="M911.61 472.559h-379.213v379.213h-43.707v-379.213h-384.624v-43.707h384.624v-384.624h43.707v384.624h379.213z" />
<glyph unicode="&#xe936;" glyph-name="map-pin" horiz-adv-x="768" d="M384 960c-211.744 0-384-172.608-384-384.704 0-317.664 358.432-622.688 373.696-635.52 2.976-2.528 6.656-3.776 10.304-3.776 3.616 0 7.232 1.216 10.176 3.648 15.264 12.608 373.824 312.384 373.824 635.648 0 212.096-172.256 384.704-384 384.704zM384.064-26.816c-58.912 52.64-352.064 328.288-352.064 602.112 0 194.496 157.92 352.704 352 352.704s352-158.208 352-352.704c0-278.464-292.864-550.176-351.936-602.112zM384 768c-105.888 0-192-86.112-192-192s86.112-192 192-192 192 86.112 192 192-86.112 192-192 192zM384 416c-88.224 0-160 71.776-160 160s71.776 160 160 160 160-71.776 160-160-71.776-160-160-160z" />
<glyph unicode="&#xe937;" glyph-name="user1" d="M874.040 810.038c-96.706 96.704-225.28 149.962-362.040 149.962s-265.334-53.258-362.040-149.962c-96.702-96.704-149.96-225.278-149.96-362.038s53.258-265.334 149.96-362.038c96.706-96.704 225.28-149.962 362.040-149.962s265.334 53.258 362.040 149.962c96.702 96.704 149.96 225.278 149.96 362.038s-53.258 265.334-149.96 362.038zM512-4c-133.738 0-254.074 58.404-336.904 151.022 51.35 136.134 182.8 232.978 336.904 232.978-99.412 0-180 80.588-180 180s80.588 180 180 180 180-80.588 180-180-80.588-180-180-180c154.104 0 285.554-96.844 336.904-232.978-82.83-92.618-203.166-151.022-336.904-151.022z" />
<glyph unicode="&#xe938;" glyph-name="shopping-cart_bold_full" d="M395.52 266.24c-36.736 0-66.56 29.824-66.56 66.56 0 23.936 12.928 45.952 33.408 57.728-9.472 42.88-56.832 255.744-66.304 298.112h-92.544c-15.488 0-28.16 12.672-28.16 28.16s12.672 28.16 28.16 28.16h115.2c13.312 0 24.576-9.088 27.52-22.016l12.16-54.784h462.080c8.832 0 17.152-4.224 22.528-11.264 5.248-7.040 7.040-16.256 4.608-24.704l-76.8-268.8c-3.456-12.032-14.592-20.48-27.136-20.48h-348.16c-5.632 0-10.24-4.608-10.24-10.24s4.608-10.24 10.24-10.24h348.16c15.488 0 28.16-12.672 28.16-28.16s-12.672-28.16-28.16-28.16h-348.16zM500.48 217.6c0-36.76-29.8-66.56-66.56-66.56s-66.56 29.8-66.56 66.56c0 36.76 29.8 66.56 66.56 66.56s66.56-29.8 66.56-66.56zM771.84 217.6c0-36.76-29.8-66.56-66.56-66.56s-66.56 29.8-66.56 66.56c0 36.76 29.8 66.56 66.56 66.56s66.56-29.8 66.56-66.56z" />
<glyph unicode="&#xe939;" glyph-name="shopping-cart_bold" d="M395.52 266.24c-36.736 0-66.56 29.824-66.56 66.56 0 23.936 12.928 45.952 33.408 57.728-9.472 42.88-56.832 255.744-66.304 298.112h-92.544c-15.488 0-28.16 12.672-28.16 28.16s12.672 28.16 28.16 28.16h115.2c13.312 0 24.576-9.088 27.52-22.016l12.16-54.784h462.080c8.832 0 17.152-4.224 22.528-11.264 5.248-7.040 7.040-16.256 4.608-24.704l-76.8-268.8c-3.456-12.032-14.592-20.48-27.136-20.48h-348.16c-5.632 0-10.24-4.608-10.24-10.24s4.608-10.24 10.24-10.24h348.16c15.488 0 28.16-12.672 28.16-28.16s-12.672-28.16-28.16-28.16h-348.16zM722.432 399.36l60.672 212.48h-412.16l47.232-212.48h304.256zM500.48 217.6c0-36.76-29.8-66.56-66.56-66.56s-66.56 29.8-66.56 66.56c0 36.76 29.8 66.56 66.56 66.56s66.56-29.8 66.56-66.56zM771.84 217.6c0-36.76-29.8-66.56-66.56-66.56s-66.56 29.8-66.56 66.56c0 36.76 29.8 66.56 66.56 66.56s66.56-29.8 66.56-66.56z" />
<glyph unicode="&#xe93a;" glyph-name="jpg" d="M988.958 682.886l-260.878 271.078c-3.714 3.856-8.838 6.036-14.19 6.036h-388.82c-43.514 0-78.916-35.388-78.916-78.884v-275.578h-157.574c-32.556 0-59.042-26.478-59.042-59.026v-295.488c0-32.546 26.486-59.024 59.042-59.024h157.574v-177.254c0-43.42 35.402-78.746 78.916-78.746h590.476c43.514 0 78.916 35.306 78.916 78.702v654.528c0 5.092-1.974 9.986-5.504 13.656zM718.77 906.838l214.158-222.53h-214.158v222.53zM88.58 231.384c-10.84 0-19.656 8.81-19.656 19.64v295.488c0 10.83 8.818 19.642 19.656 19.642h531.764c10.84 0 19.656-8.812 19.656-19.642v-295.488c0-10.83-8.818-19.64-19.656-19.64h-531.764zM955.076 14.702c0-21.68-17.734-39.318-39.532-39.318h-590.474c-21.798 0-39.532 17.656-39.532 39.36v177.256h334.806c32.556 0 59.042 26.478 59.042 59.024v295.488c0 32.548-26.486 59.026-59.042 59.026h-334.806v275.578c0 21.782 17.734 39.5 39.532 39.5h354.314v-256c0-10.876 8.818-19.692 19.692-19.692h256v-630.222zM493.23 400.848v-28.5h39.116v-21.466c-5.154-3.998-11.328-7.398-18.52-10.21-7.192-2.806-14.366-4.21-21.52-4.21-14.462 0-26.154 5.016-35.076 15.056-8.924 10.038-13.384 25.098-13.384 45.174 0 18.614 4.404 32.656 13.212 42.118s20.672 14.194 35.596 14.194c9.846 0 18.058-2.408 24.634-7.212 6.576-4.81 11.056-11.368 13.444-19.674l33.92 6.346c-3.382 15.538-10.978 27.712-22.788 36.52-11.806 8.808-28.21 13.21-49.21 13.21-16.154 0-29.654-2.806-40.5-8.424-14.23-7.306-25.038-17.806-32.422-31.498s-11.076-29.346-11.076-46.96c0-16.232 3.308-31.252 9.922-45.056 6.616-13.81 16.5-24.424 29.654-31.848s28.576-11.136 46.27-11.136c13.924 0 27.672 2.634 41.25 7.906 13.578 5.268 23.94 11.362 31.1 18.284v67.388h-73.622zM376.692 460.21c-6.538 8.502-14.654 14.020-24.346 16.562-6.308 1.694-19.846 2.534-40.616 2.534h-54.808v-169.152h34.154v63.808h22.27c15.462 0 27.27 0.808 35.422 2.422 6 1.31 11.904 3.984 17.712 8.020s10.596 9.596 14.366 16.674c3.77 7.074 5.654 15.808 5.654 26.192 0 13.458-3.27 24.442-9.808 32.94zM347.442 413.652c-2.576-3.766-6.134-6.538-10.674-8.306-4.538-1.766-13.538-2.652-27-2.652h-18.692v48h16.5c12.308 0 20.5-0.384 24.576-1.152 5.538-1.004 10.116-3.5 13.73-7.502 3.616-3.998 5.424-9.078 5.424-15.232 0.002-4.998-1.286-9.384-3.864-13.156zM186.538 479.306v-109.266c0-13.692-1.576-22.71-4.73-27.058s-8.538-6.518-16.154-6.518c-7.538 0-13.154 3.036-16.846 9.114-2.462 4.002-3.884 10.846-4.27 20.538l-32.192-3.692c0.076-18.078 4.616-31.788 13.616-41.132 9-9.348 21.846-14.020 38.538-14.020 14.23 0 25.692 2.984 34.384 8.94 8.692 5.962 14.692 13.868 18 23.714 2.462 7.536 3.692 18.308 3.692 32.304v107.076h-34.038z" />
<glyph unicode="&#xe93b;" glyph-name="pdf1" d="M988.958 682.886l-260.878 271.078c-3.714 3.856-8.838 6.036-14.19 6.036h-388.82c-43.514 0-78.916-35.388-78.916-78.884v-275.578h-157.574c-32.556 0-59.042-26.478-59.042-59.026v-295.488c0-32.546 26.486-59.024 59.042-59.024h157.574v-177.254c0-43.42 35.402-78.746 78.916-78.746h590.476c43.514 0 78.916 35.306 78.916 78.702v654.528c0 5.092-1.974 9.986-5.504 13.656zM718.77 906.838l214.158-222.53h-214.158v222.53zM88.58 231.384c-10.84 0-19.656 8.81-19.656 19.64v295.488c0 10.83 8.818 19.642 19.656 19.642h531.764c10.84 0 19.656-8.812 19.656-19.642v-295.488c0-10.83-8.818-19.64-19.656-19.64h-531.764zM955.076 14.702c0-21.68-17.734-39.318-39.532-39.318h-590.474c-21.798 0-39.532 17.656-39.532 39.36v177.256h334.806c32.556 0 59.042 26.478 59.042 59.024v295.488c0 32.548-26.486 59.026-59.042 59.026h-334.806v275.578c0 21.782 17.734 39.5 39.532 39.5h354.314v-256c0-10.876 8.818-19.692 19.692-19.692h256v-630.222zM264.962 460.212c-6.538 8.5-14.654 14.020-24.346 16.558-6.308 1.692-19.846 2.538-40.616 2.538h-54.808v-169.154h34.154v63.808h22.27c15.462 0 27.27 0.808 35.424 2.424 6 1.308 11.904 3.98 17.712 8.020 5.808 4.038 10.596 9.596 14.366 16.672s5.654 15.808 5.654 26.192c-0.002 13.462-3.272 24.442-9.81 32.942zM235.712 413.654c-2.576-3.77-6.134-6.538-10.674-8.308s-13.538-2.654-27-2.654h-18.692v48h16.5c12.308 0 20.5-0.384 24.576-1.154 5.538-1 10.116-3.5 13.73-7.5 3.616-4 5.424-9.078 5.424-15.23 0.002-5-1.288-9.384-3.864-13.154zM438.962 433.096c-3.692 10.808-9.078 19.942-16.154 27.404s-15.578 12.654-25.5 15.578c-7.384 2.154-18.116 3.23-32.192 3.23h-62.424v-169.154h64.27c12.616 0 22.692 1.192 30.23 3.578 10.078 3.23 18.078 7.73 24 13.5 7.846 7.616 13.884 17.576 18.116 29.884 3.462 10.078 5.192 22.078 5.192 36 0 15.846-1.846 29.172-5.538 39.98zM405.73 363.634c-2.308-7.578-5.288-13.020-8.942-16.326-3.654-3.308-8.25-5.654-13.788-7.038-4.23-1.078-11.116-1.616-20.654-1.616h-25.5v112.038h15.346c13.922 0 23.27-0.538 28.038-1.616 6.384-1.384 11.654-4.038 15.808-7.962s7.384-9.384 9.692-16.384c2.308-7 3.462-17.038 3.462-30.116 0-13.076-1.154-23.402-3.462-30.98zM589.654 450.692v28.616h-115.962v-169.154h34.154v71.884h70.616v28.616h-70.616v40.038z" />
<glyph unicode="&#xe93c;" glyph-name="zip1" d="M988.958 682.886l-260.878 271.078c-3.714 3.856-8.838 6.036-14.19 6.036h-388.82c-43.514 0-78.916-35.388-78.916-78.884v-275.578h-157.574c-32.556 0-59.042-26.478-59.042-59.026v-295.488c0-32.546 26.486-59.024 59.042-59.024h157.574v-177.254c0-43.42 35.402-78.746 78.916-78.746h590.476c43.514 0 78.916 35.306 78.916 78.702v654.528c0 5.092-1.974 9.986-5.504 13.656zM718.77 906.838l214.158-222.53h-214.158v222.53zM88.58 231.384c-10.84 0-19.656 8.81-19.656 19.64v295.488c0 10.83 8.818 19.642 19.656 19.642h531.762c10.838 0 19.658-8.812 19.658-19.642v-295.488c0-10.83-8.82-19.64-19.658-19.64h-531.762zM955.076 14.702c0-21.68-17.734-39.318-39.532-39.318h-590.474c-21.798 0-39.532 17.656-39.532 39.36v177.256h334.802c32.558 0 59.044 26.478 59.044 59.024v295.488c0 32.548-26.486 59.026-59.044 59.026h-334.802v275.578c0 21.782 17.734 39.5 39.532 39.5h354.314v-256c0-10.876 8.818-19.692 19.692-19.692h256v-630.222zM347.57 479.31h34.152v-169.156h-34.152v169.156zM230.81 338.654l92.65 114.116v26.536h-123.804v-28.612h78.804l-88.842-109.732v-30.808h137.422v28.5zM534.040 460.21c-6.544 8.502-14.656 14.020-24.35 16.562-6.306 1.694-19.844 2.534-40.616 2.534h-54.81v-169.152h34.156v63.808h22.266c15.464 0 27.268 0.808 35.426 2.422 5.996 1.31 11.904 3.984 17.708 8.020 5.81 4.038 10.6 9.596 14.366 16.674 3.772 7.074 5.656 15.808 5.656 26.192 0.004 13.458-3.264 24.442-9.802 32.94zM504.788 413.652c-2.576-3.766-6.134-6.538-10.674-8.306-4.54-1.766-13.538-2.652-26.998-2.652h-18.692v48h16.498c12.312 0 20.504-0.384 24.58-1.152 5.538-1.004 10.112-3.5 13.73-7.502 3.614-3.998 5.42-9.078 5.42-15.232 0-4.998-1.284-9.384-3.864-13.156z" />
<glyph unicode="&#xe93d;" glyph-name="linkedin" d="M876 896h-728c-46.2 0-84-37.8-84-84v-728c0-46.2 37.8-84 84-84h728c46.2 0 84 37.8 84 84v728c0 46.2-37.8 84-84 84zM400 168h-112v392h112v-392zM344 616c-30.975 0-56 25.025-56 56s25.025 56 56 56c30.975 0 56-25.025 56-56s-25.025-56-56-56zM792 168h-112v224c0 30.975-25.025 56-56 56s-56-25.025-56-56v-224h-112v392h112v-69.475c23.1 31.675 58.45 69.475 98 69.475 69.65 0 126-62.65 126-140v-252z" />
<glyph unicode="&#xe93e;" glyph-name="youtube" d="M820.37 824.163h-616.741c-112.285 0-203.63-91.638-203.63-204.257v-343.792c0-112.64 91.345-204.257 203.63-204.257h616.741c112.285 0 203.63 91.638 203.63 204.257v343.792c0 112.619-91.345 204.257-203.63 204.257zM982.204 276.093c0-89.59-72.6-162.461-161.834-162.461h-616.741c-89.234 0-161.834 72.892-161.834 162.461v343.813c0 89.569 72.6 162.461 161.834 162.461h616.741c89.234 0 161.834-72.892 161.834-162.461v-343.813zM697.156 455.565l-289.541 169.587c-6.437 3.762-14.44 3.824-20.94 0.104s-10.512-10.637-10.512-18.139v-339.153c0-7.481 4.012-14.42 10.491-18.139 3.218-1.839 6.813-2.759 10.407-2.759 3.657 0 7.293 0.961 10.553 2.863l289.541 169.545c6.395 3.741 10.344 10.616 10.344 18.035s-3.929 14.315-10.344 18.056zM417.959 304.431v266.24l227.286-133.141-227.286-133.099z" />
<glyph unicode="&#xe971;" glyph-name="user" d="M576 253.388v52.78c70.498 39.728 128 138.772 128 237.832 0 159.058 0 288-192 288s-192-128.942-192-288c0-99.060 57.502-198.104 128-237.832v-52.78c-217.102-17.748-384-124.42-384-253.388h896c0 128.968-166.898 235.64-384 253.388z" />
<glyph unicode="&#xe9cb;" glyph-name="link" d="M440.236 324.234c-13.31 0-26.616 5.076-36.77 15.23-95.134 95.136-95.134 249.934 0 345.070l192 192c46.088 46.086 107.36 71.466 172.534 71.466s126.448-25.38 172.536-71.464c95.132-95.136 95.132-249.934 0-345.070l-87.766-87.766c-20.308-20.308-53.23-20.308-73.54 0-20.306 20.306-20.306 53.232 0 73.54l87.766 87.766c54.584 54.586 54.584 143.404 0 197.99-26.442 26.442-61.6 41.004-98.996 41.004s-72.552-14.562-98.996-41.006l-192-191.998c-54.586-54.586-54.586-143.406 0-197.992 20.308-20.306 20.306-53.232 0-73.54-10.15-10.152-23.462-15.23-36.768-15.23zM256-52c-65.176 0-126.45 25.38-172.534 71.464-95.134 95.136-95.134 249.934 0 345.070l87.764 87.764c20.308 20.306 53.234 20.306 73.54 0 20.308-20.306 20.308-53.232 0-73.54l-87.764-87.764c-54.586-54.586-54.586-143.406 0-197.992 26.44-26.44 61.598-41.002 98.994-41.002s72.552 14.562 98.998 41.006l192 191.998c54.584 54.586 54.584 143.406 0 197.992-20.308 20.308-20.306 53.232 0 73.54 20.306 20.306 53.232 20.306 73.54-0.002 95.132-95.134 95.132-249.932 0.002-345.068l-192.002-192c-46.090-46.088-107.364-71.466-172.538-71.466z" />
</font>
</defs>
</svg>
